  0
SECTION
  2
HEADER
  9
$ACADVER
  1
AC1015
  9
$ACADMAINTVER
 70
     6
  9
$DWGCODEPAGE
  3
ANSI_1252
  9
$INSBASE
 10
0.0
 20
0.0
 30
0.0
  9
$EXTMIN
 10
-244.037669747061
 20
2.28207210725108
 30
0.0
  9
$EXTMAX
 10
52.96233025293711
 20
212.2820721072511
 30
0.0
  9
$LIMMIN
 10
0.0
 20
0.0
  9
$LIMMAX
 10
12.0
 20
9.0
  9
$ORTHOMODE
 70
     0
  9
$REGENMODE
 70
     1
  9
$FILLMODE
 70
     1
  9
$QTEXTMODE
 70
     0
  9
$MIRRTEXT
 70
     1
  9
$LTSCALE
 40
1.0
  9
$ATTMODE
 70
     1
  9
$TEXTSIZE
 40
0.2
  9
$TRACEWID
 40
0.05
  9
$TEXTSTYLE
  7
Standard
  9
$CLAYER
  8
0
  9
$CELTYPE
  6
ByLayer
  9
$CECOLOR
 62
   256
  9
$CELTSCALE
 40
1.0
  9
$DISPSILH
 70
     0
  9
$DIMSCALE
 40
1.0
  9
$DIMASZ
 40
0.18
  9
$DIMEXO
 40
0.0625
  9
$DIMDLI
 40
0.38
  9
$DIMRND
 40
0.0
  9
$DIMDLE
 40
0.0
  9
$DIMEXE
 40
0.18
  9
$DIMTP
 40
0.0
  9
$DIMTM
 40
0.0
  9
$DIMTXT
 40
0.18
  9
$DIMCEN
 40
0.09
  9
$DIMTSZ
 40
0.0
  9
$DIMTOL
 70
     0
  9
$DIMLIM
 70
     0
  9
$DIMTIH
 70
     1
  9
$DIMTOH
 70
     1
  9
$DIMSE1
 70
     0
  9
$DIMSE2
 70
     0
  9
$DIMTAD
 70
     0
  9
$DIMZIN
 70
     0
  9
$DIMBLK
  1

  9
$DIMASO
 70
     1
  9
$DIMSHO
 70
     1
  9
$DIMPOST
  1

  9
$DIMAPOST
  1

  9
$DIMALT
 70
     0
  9
$DIMALTD
 70
     2
  9
$DIMALTF
 40
25.4
  9
$DIMLFAC
 40
1.0
  9
$DIMTOFL
 70
     0
  9
$DIMTVP
 40
0.0
  9
$DIMTIX
 70
     0
  9
$DIMSOXD
 70
     0
  9
$DIMSAH
 70
     0
  9
$DIMBLK1
  1

  9
$DIMBLK2
  1

  9
$DIMSTYLE
  2
Standard
  9
$DIMCLRD
 70
     0
  9
$DIMCLRE
 70
     0
  9
$DIMCLRT
 70
     0
  9
$DIMTFAC
 40
1.0
  9
$DIMGAP
 40
0.09
  9
$DIMJUST
 70
     0
  9
$DIMSD1
 70
     0
  9
$DIMSD2
 70
     0
  9
$DIMTOLJ
 70
     1
  9
$DIMTZIN
 70
     0
  9
$DIMALTZ
 70
     0
  9
$DIMALTTZ
 70
     0
  9
$DIMUPT
 70
     0
  9
$DIMDEC
 70
     4
  9
$DIMTDEC
 70
     4
  9
$DIMALTU
 70
     2
  9
$DIMALTTD
 70
     2
  9
$DIMTXSTY
  7
Standard
  9
$DIMAUNIT
 70
     0
  9
$DIMADEC
 70
     0
  9
$DIMALTRND
 40
0.0
  9
$DIMAZIN
 70
     0
  9
$DIMDSEP
 70
    46
  9
$DIMATFIT
 70
     3
  9
$DIMFRAC
 70
     0
  9
$DIMLDRBLK
  1

  9
$DIMLUNIT
 70
     2
  9
$DIMLWD
 70
    -2
  9
$DIMLWE
 70
    -2
  9
$DIMTMOVE
 70
     0
  9
$LUNITS
 70
     2
  9
$LUPREC
 70
     4
  9
$SKETCHINC
 40
0.1
  9
$FILLETRAD
 40
0.5
  9
$AUNITS
 70
     0
  9
$AUPREC
 70
     0
  9
$MENU
  1
.
  9
$ELEVATION
 40
0.0
  9
$PELEVATION
 40
0.0
  9
$THICKNESS
 40
0.0
  9
$LIMCHECK
 70
     0
  9
$CHAMFERA
 40
0.5
  9
$CHAMFERB
 40
0.5
  9
$CHAMFERC
 40
1.0
  9
$CHAMFERD
 40
0.0
  9
$SKPOLY
 70
     0
  9
$TDCREATE
 40
2456974.616471991
  9
$TDUCREATE
 40
2456974.574805324
  9
$TDUPDATE
 40
2456974.616473403
  9
$TDUUPDATE
 40
2456974.574806736
  9
$TDINDWG
 40
0.0000000116
  9
$TDUSRTIMER
 40
0.0000000116
  9
$USRTIMER
 70
     1
  9
$ANGBASE
 50
0.0
  9
$ANGDIR
 70
     0
  9
$PDMODE
 70
     0
  9
$PDSIZE
 40
0.0
  9
$PLINEWID
 40
0.0
  9
$SPLFRAME
 70
     0
  9
$SPLINETYPE
 70
     6
  9
$SPLINESEGS
 70
     8
  9
$HANDSEED
  5
4D7
  9
$SURFTAB1
 70
     6
  9
$SURFTAB2
 70
     6
  9
$SURFTYPE
 70
     6
  9
$SURFU
 70
     6
  9
$SURFV
 70
     6
  9
$UCSBASE
  2

  9
$UCSNAME
  2

  9
$UCSORG
 10
0.0
 20
0.0
 30
0.0
  9
$UCSXDIR
 10
1.0
 20
0.0
 30
0.0
  9
$UCSYDIR
 10
0.0
 20
1.0
 30
0.0
  9
$UCSORTHOREF
  2

  9
$UCSORTHOVIEW
 70
     0
  9
$UCSORGTOP
 10
0.0
 20
0.0
 30
0.0
  9
$UCSORGBOTTOM
 10
0.0
 20
0.0
 30
0.0
  9
$UCSORGLEFT
 10
0.0
 20
0.0
 30
0.0
  9
$UCSORGRIGHT
 10
0.0
 20
0.0
 30
0.0
  9
$UCSORGFRONT
 10
0.0
 20
0.0
 30
0.0
  9
$UCSORGBACK
 10
0.0
 20
0.0
 30
0.0
  9
$PUCSBASE
  2

  9
$PUCSNAME
  2

  9
$PUCSORG
 10
0.0
 20
0.0
 30
0.0
  9
$PUCSXDIR
 10
1.0
 20
0.0
 30
0.0
  9
$PUCSYDIR
 10
0.0
 20
1.0
 30
0.0
  9
$PUCSORTHOREF
  2

  9
$PUCSORTHOVIEW
 70
     0
  9
$PUCSORGTOP
 10
0.0
 20
0.0
 30
0.0
  9
$PUCSORGBOTTOM
 10
0.0
 20
0.0
 30
0.0
  9
$PUCSORGLEFT
 10
0.0
 20
0.0
 30
0.0
  9
$PUCSORGRIGHT
 10
0.0
 20
0.0
 30
0.0
  9
$PUCSORGFRONT
 10
0.0
 20
0.0
 30
0.0
  9
$PUCSORGBACK
 10
0.0
 20
0.0
 30
0.0
  9
$USERI1
 70
     0
  9
$USERI2
 70
     0
  9
$USERI3
 70
     0
  9
$USERI4
 70
     0
  9
$USERI5
 70
     0
  9
$USERR1
 40
18.1
  9
$USERR2
 40
0.0
  9
$USERR3
 40
0.0
  9
$USERR4
 40
0.0
  9
$USERR5
 40
0.0
  9
$WORLDVIEW
 70
     1
  9
$SHADEDGE
 70
     3
  9
$SHADEDIF
 70
    70
  9
$TILEMODE
 70
     1
  9
$MAXACTVP
 70
    64
  9
$PINSBASE
 10
0.0
 20
0.0
 30
0.0
  9
$PLIMCHECK
 70
     0
  9
$PEXTMIN
 10
1.00000000000000E+20
 20
1.00000000000000E+20
 30
1.00000000000000E+20
  9
$PEXTMAX
 10
-1.00000000000000E+20
 20
-1.00000000000000E+20
 30
-1.00000000000000E+20
  9
$PLIMMIN
 10
0.0
 20
0.0
  9
$PLIMMAX
 10
12.0
 20
9.0
  9
$UNITMODE
 70
     0
  9
$VISRETAIN
 70
     1
  9
$PLINEGEN
 70
     0
  9
$PSLTSCALE
 70
     1
  9
$TREEDEPTH
 70
  3020
  9
$CMLSTYLE
  2
Standard
  9
$CMLJUST
 70
     0
  9
$CMLSCALE
 40
1.0
  9
$PROXYGRAPHICS
 70
     1
  9
$MEASUREMENT
 70
     1
  9
$CELWEIGHT
370
    -1
  9
$ENDCAPS
280
     0
  9
$JOINSTYLE
280
     0
  9
$LWDISPLAY
290
     0
  9
$INSUNITS
 70
     4
  9
$HYPERLINKBASE
  1

  9
$STYLESHEET
  1

  9
$XEDIT
290
     1
  9
$CEPSNTYPE
380
     0
  9
$PSTYLEMODE
290
     1
  9
$FINGERPRINTGUID
  2
{147C596B-ABB4-4A25-B186-9F31318FFE89}
  9
$VERSIONGUID
  2
{FAEB1C32-E019-11D5-929B-00C0DF256EC4}
  9
$EXTNAMES
290
     1
  9
$PSVPSCALE
 40
0.0
  9
$OLESTARTUP
290
     0
  0
ENDSEC
  0
SECTION
  2
CLASSES
  0
CLASS
  1
ACDBDICTIONARYWDFLT
  2
AcDbDictionaryWithDefault
  3
ObjectDBX Classes
 90
        0
280
     0
281
     0
  0
CLASS
  1
VISUALSTYLE
  2
AcDbVisualStyle
  3
ObjectDBX Classes
 90
     4095
280
     0
281
     0
  0
CLASS
  1
MATERIAL
  2
AcDbMaterial
  3
ObjectDBX Classes
 90
     1153
280
     0
281
     0
  0
CLASS
  1
DICTIONARYVAR
  2
AcDbDictionaryVar
  3
ObjectDBX Classes
 90
        0
280
     0
281
     0
  0
CLASS
  1
ACDBPLACEHOLDER
  2
AcDbPlaceHolder
  3
ObjectDBX Classes
 90
        0
280
     0
281
     0
  0
CLASS
  1
LAYOUT
  2
AcDbLayout
  3
ObjectDBX Classes
 90
        0
280
     0
281
     0
  0
ENDSEC
  0
SECTION
  2
TABLES
  0
TABLE
  2
VPORT
  5
8
330
0
100
AcDbSymbolTable
 70
     1
  0
VPORT
  5
29
330
8
100
AcDbSymbolTableRecord
100
AcDbViewportTableRecord
  2
*Active
 70
     0
 10
0.0
 20
0.0
 11
1.0
 21
1.0
 12
-95.53766974706194
 22
107.2820721072511
 13
0.0
 23
0.0
 14
0.5
 24
0.5
 15
0.5
 25
0.5
 16
0.0
 26
0.0
 36
1.0
 17
0.0
 27
0.0
 37
0.0
 40
231.0000000000001
 41
1.60267857142857
 42
50.0
 43
0.0
 44
0.0
 50
0.0
 51
0.0
 71
     0
 72
   100
 73
     1
 74
     3
 75
     0
 76
     0
 77
     0
 78
     0
281
     0
 65
     1
110
0.0
120
0.0
130
0.0
111
1.0
121
0.0
131
0.0
112
0.0
122
1.0
132
0.0
 79
     0
146
0.0
  0
ENDTAB
  0
TABLE
  2
LTYPE
  5
5
330
0
100
AcDbSymbolTable
 70
     8
  0
LTYPE
  5
14
330
5
100
AcDbSymbolTableRecord
100
AcDbLinetypeTableRecord
  2
ByBlock
 70
     0
  3

 72
    65
 73
     0
 40
0.0
  0
LTYPE
  5
15
330
5
100
AcDbSymbolTableRecord
100
AcDbLinetypeTableRecord
  2
ByLayer
 70
     0
  3

 72
    65
 73
     0
 40
0.0
  0
LTYPE
  5
16
330
5
100
AcDbSymbolTableRecord
100
AcDbLinetypeTableRecord
  2
Continuous
 70
     0
  3
Solid line
 72
    65
 73
     0
 40
0.0
  0
LTYPE
  5
3F
330
5
100
AcDbSymbolTableRecord
100
AcDbLinetypeTableRecord
  2
DASHED
 70
     0
  3
Dashed
 72
    65
 73
     2
 40
15.0
 49
7.0
 74
     0
 49
-8.0
 74
     0
  0
LTYPE
  5
40
330
5
100
AcDbSymbolTableRecord
100
AcDbLinetypeTableRecord
  2
DOTTED
 70
     0
  3
Dotted
 72
    65
 73
     2
 40
1.0
 49
0.0
 74
     0
 49
-1.0
 74
     0
  0
LTYPE
  5
41
330
5
100
AcDbSymbolTableRecord
100
AcDbLinetypeTableRecord
  2
DOT_CENTER
 70
     0
  3
Dot_Center
 72
    65
 73
     4
 40
14.0
 49
12.0
 74
     0
 49
-1.0
 74
     0
 49
0.0
 74
     0
 49
-1.0
 74
     0
  0
LTYPE
  5
42
330
5
100
AcDbSymbolTableRecord
100
AcDbLinetypeTableRecord
  2
LONG_DASHED
 70
     0
  3
Long_Dashed
 72
    65
 73
     2
 40
15.0
 49
10.0
 74
     0
 49
-5.0
 74
     0
  0
LTYPE
  5
43
330
5
100
AcDbSymbolTableRecord
100
AcDbLinetypeTableRecord
  2
DASH_CENTER
 70
     0
  3
Dash_Center
 72
    65
 73
     4
 40
14.0
 49
11.0
 74
     0
 49
-1.0
 74
     0
 49
1.0
 74
     0
 49
-1.0
 74
     0
  0
LTYPE
  5
44
330
5
100
AcDbSymbolTableRecord
100
AcDbLinetypeTableRecord
  2
PHANTOM
 70
     0
  3
Phantom
 72
    65
 73
     6
 40
13.0
 49
10.0
 74
     0
 49
-1.0
 74
     0
 49
0.0
 74
     0
 49
-1.0
 74
     0
 49
0.0
 74
     0
 49
-1.0
 74
     0
  0
LTYPE
  5
45
330
5
100
AcDbSymbolTableRecord
100
AcDbLinetypeTableRecord
  2
CENTER_DASH_DASH
 70
     0
  3
Center_Dash_Dash
 72
    65
 73
     6
 40
14.0
 49
9.0
 74
     0
 49
-1.0
 74
     0
 49
1.0
 74
     0
 49
-1.0
 74
     0
 49
1.0
 74
     0
 49
-1.0
 74
     0
  0
ENDTAB
  0
TABLE
  2
LAYER
  5
2
330
0
100
AcDbSymbolTable
 70
     2
  0
LAYER
  5
10
330
2
100
AcDbSymbolTableRecord
100
AcDbLayerTableRecord
  2
0
 70
     0
 62
     7
  6
Continuous
370
    -3
390
F
  0
LAYER
  5
46
330
2
100
AcDbSymbolTableRecord
100
AcDbLayerTableRecord
  2
1
 70
     0
 62
     7
  6
Continuous
370
    -3
390
F
  0
ENDTAB
  0
TABLE
  2
STYLE
  5
3
330
0
100
AcDbSymbolTable
 70
     9
  0
STYLE
  5
11
330
3
100
AcDbSymbolTableRecord
100
AcDbTextStyleTableRecord
  2
Standard
 70
     0
 40
0.0
 41
1.0
 50
0.0
 71
     0
 42
0.2
  3
txt
  4

  0
STYLE
  5
F8
330
3
100
AcDbSymbolTableRecord
100
AcDbTextStyleTableRecord
  2
CONVERTER_11
 70
     0
 40
0.0
 41
0.9
 50
0.0
 71
     0
 42
0.2
  3
txt.shx
  4

  0
STYLE
  5
42A
330
3
100
AcDbSymbolTableRecord
100
AcDbTextStyleTableRecord
  2
CONVERTER_12
 70
     0
 40
0.0
 41
0.63
 50
0.0
 71
     0
 42
0.2
  3
txt.shx
  4

  0
STYLE
  5
42D
330
3
100
AcDbSymbolTableRecord
100
AcDbTextStyleTableRecord
  2
CONVERTER_13
 70
     0
 40
0.0
 41
0.72
 50
0.0
 71
     0
 42
0.2
  3
txt.shx
  4

  0
STYLE
  5
431
330
3
100
AcDbSymbolTableRecord
100
AcDbTextStyleTableRecord
  2
CONVERTER_14
 70
     0
 40
0.0
 41
0.765
 50
0.0
 71
     0
 42
0.2
  3
txt.shx
  4

  0
STYLE
  5
469
330
3
100
AcDbSymbolTableRecord
100
AcDbTextStyleTableRecord
  2
CONVERTER_15
 70
     0
 40
0.0
 41
0.855
 50
0.0
 71
     0
 42
0.2
  3
txt.shx
  4

  0
STYLE
  5
485
330
3
100
AcDbSymbolTableRecord
100
AcDbTextStyleTableRecord
  2
CONVERTER_16
 70
     0
 40
0.0
 41
0.54
 50
0.0
 71
     0
 42
0.2
  3
txt.shx
  4

  0
STYLE
  5
487
330
3
100
AcDbSymbolTableRecord
100
AcDbTextStyleTableRecord
  2
CONVERTER_17
 70
     0
 40
0.0
 41
0.81
 50
0.0
 71
     0
 42
0.2
  3
txt.shx
  4

  0
STYLE
  5
48E
330
3
100
AcDbSymbolTableRecord
100
AcDbTextStyleTableRecord
  2
CONVERTER_18
 70
     0
 40
0.0
 41
0.45
 50
0.0
 71
     0
 42
0.2
  3
txt.shx
  4

  0
ENDTAB
  0
TABLE
  2
VIEW
  5
6
330
0
100
AcDbSymbolTable
 70
     0
  0
ENDTAB
  0
TABLE
  2
UCS
  5
7
330
0
100
AcDbSymbolTable
 70
     0
  0
ENDTAB
  0
TABLE
  2
APPID
  5
9
330
0
100
AcDbSymbolTable
 70
     1
  0
APPID
  5
12
330
9
100
AcDbSymbolTableRecord
100
AcDbRegAppTableRecord
  2
ACAD
 70
     0
  0
ENDTAB
  0
TABLE
  2
DIMSTYLE
  5
A
330
0
100
AcDbSymbolTable
 70
     5
100
AcDbDimStyleTable
  0
DIMSTYLE
105
27
330
A
100
AcDbSymbolTableRecord
100
AcDbDimStyleTableRecord
  2
Standard
 70
     0
178
     0
340
11
  0
DIMSTYLE
105
132
102
{ACAD_REACTORS
330
133
102
}
330
A
100
AcDbSymbolTableRecord
100
AcDbDimStyleTableRecord
  2
ME10_DIM_10
 70
     0
 41
1.75
 42
0.0
 44
1.0
 73
     0
 74
     0
 77
     1
 78
     8
140
1.75
147
1.0
172
     1
173
     1
174
     1
175
     1
176
     2
177
     2
271
     1
178
     3
271
     1
340
F8
  0
DIMSTYLE
105
13D
102
{ACAD_REACTORS
330
13E
102
}
330
A
100
AcDbSymbolTableRecord
100
AcDbDimStyleTableRecord
  2
ME10_DIM_11
 70
     0
 41
1.75
 42
0.0
 44
1.0
 73
     0
 74
     0
 77
     1
 78
     8
140
1.75
147
1.0
172
     1
173
     1
174
     1
175
     1
176
     2
177
     2
271
     1
178
     3
271
     1
340
F8
  0
DIMSTYLE
105
14A
102
{ACAD_REACTORS
330
14B
102
}
330
A
100
AcDbSymbolTableRecord
100
AcDbDimStyleTableRecord
  2
ME10_DIM_12
 70
     0
 41
1.75
 42
0.0
 44
1.0
 73
     0
 74
     0
 77
     1
 78
     8
140
1.75
147
1.0
172
     1
173
     1
174
     1
175
     1
176
     2
177
     2
271
     1
178
     3
271
     1
340
F8
  0
DIMSTYLE
105
2AB
102
{ACAD_REACTORS
330
2AC
102
}
330
A
100
AcDbSymbolTableRecord
100
AcDbDimStyleTableRecord
  2
ME10_DIM_13
 70
     0
 41
1.75
 42
0.0
 44
1.0
 73
     0
 74
     0
 77
     1
 78
     8
140
1.75
147
1.0
172
     1
173
     1
174
     1
175
     1
176
     2
177
     2
178
     3
340
F8
  0
ENDTAB
  0
TABLE
  2
BLOCK_RECORD
  5
1
330
0
100
AcDbSymbolTable
 70
    20
  0
BLOCK_RECORD
  5
1F
330
1
100
AcDbSymbolTableRecord
100
AcDbBlockTableRecord
  2
*Model_Space
340
22
  0
BLOCK_RECORD
  5
1B
330
1
100
AcDbSymbolTableRecord
100
AcDbBlockTableRecord
  2
*Paper_Space
340
1E
  0
BLOCK_RECORD
  5
23
330
1
100
AcDbSymbolTableRecord
100
AcDbBlockTableRecord
  2
*Paper_Space0
340
26
  0
BLOCK_RECORD
  5
47
330
1
100
AcDbSymbolTableRecord
100
AcDbBlockTableRecord
  2
3030941_WST_2_5-select__1
340
0
102
{BLKREFS
331
4B
102
}
  0
BLOCK_RECORD
  5
4A
330
1
100
AcDbSymbolTableRecord
100
AcDbBlockTableRecord
  2
Allg1
340
0
102
{BLKREFS
331
7C
102
}
  0
BLOCK_RECORD
  5
4E
330
1
100
AcDbSymbolTableRecord
100
AcDbBlockTableRecord
  2
3030941_WST_2_5-select__2
340
0
102
{BLKREFS
331
52
102
}
  0
BLOCK_RECORD
  5
51
330
1
100
AcDbSymbolTableRecord
100
AcDbBlockTableRecord
  2
Drfsicht1
340
0
102
{BLKREFS
331
7D
102
}
  0
BLOCK_RECORD
  5
55
330
1
100
AcDbSymbolTableRecord
100
AcDbBlockTableRecord
  2
3030941_WST_2_5-select__3
340
0
102
{BLKREFS
331
59
102
}
  0
BLOCK_RECORD
  5
58
330
1
100
AcDbSymbolTableRecord
100
AcDbBlockTableRecord
  2
Rckans1
340
0
102
{BLKREFS
331
7E
102
}
  0
BLOCK_RECORD
  5
5C
330
1
100
AcDbSymbolTableRecord
100
AcDbBlockTableRecord
  2
3030941_WST_2_5-select__4
340
0
102
{BLKREFS
331
60
102
}
  0
BLOCK_RECORD
  5
5F
330
1
100
AcDbSymbolTableRecord
100
AcDbBlockTableRecord
  2
SA_Links1
340
0
102
{BLKREFS
331
7F
102
}
  0
BLOCK_RECORD
  5
63
330
1
100
AcDbSymbolTableRecord
100
AcDbBlockTableRecord
  2
3030941_WST_2_5-select__5
340
0
102
{BLKREFS
331
67
102
}
  0
BLOCK_RECORD
  5
66
330
1
100
AcDbSymbolTableRecord
100
AcDbBlockTableRecord
  2
SA_Rechts1
340
0
102
{BLKREFS
331
80
102
}
  0
BLOCK_RECORD
  5
6A
330
1
100
AcDbSymbolTableRecord
100
AcDbBlockTableRecord
  2
3030941_WST_2_5-select__6
340
0
102
{BLKREFS
331
6E
102
}
  0
BLOCK_RECORD
  5
6D
330
1
100
AcDbSymbolTableRecord
100
AcDbBlockTableRecord
  2
Vordans1
340
0
102
{BLKREFS
331
81
102
}
  0
BLOCK_RECORD
  5
71
330
1
100
AcDbSymbolTableRecord
100
AcDbBlockTableRecord
  2
_punkt
340
0
102
{BLKREFS
331
78
102
}
  0
BLOCK_RECORD
  5
74
330
1
100
AcDbSymbolTableRecord
100
AcDbBlockTableRecord
  2
_rahmen
340
0
102
{BLKREFS
331
79
102
}
  0
BLOCK_RECORD
  5
77
330
1
100
AcDbSymbolTableRecord
100
AcDbBlockTableRecord
  2
A4I
340
0
102
{BLKREFS
331
82
102
}
  0
BLOCK_RECORD
  5
127
330
1
100
AcDbSymbolTableRecord
100
AcDbBlockTableRecord
  2
*D16
340
0
  0
BLOCK_RECORD
  5
134
330
1
100
AcDbSymbolTableRecord
100
AcDbBlockTableRecord
  2
*D17
340
0
  0
BLOCK_RECORD
  5
13F
330
1
100
AcDbSymbolTableRecord
100
AcDbBlockTableRecord
  2
*D18
340
0
  0
BLOCK_RECORD
  5
2A0
330
1
100
AcDbSymbolTableRecord
100
AcDbBlockTableRecord
  2
*D19
340
0
  0
ENDTAB
  0
ENDSEC
  0
SECTION
  2
BLOCKS
  0
BLOCK
  5
20
330
1F
100
AcDbEntity
  8
0
100
AcDbBlockBegin
  2
*Model_Space
 70
     0
 10
0.0
 20
0.0
 30
0.0
  3
*Model_Space
  1

  0
ENDBLK
  5
21
330
1F
100
AcDbEntity
  8
0
100
AcDbBlockEnd
  0
BLOCK
  5
1C
330
1B
100
AcDbEntity
 67
     1
  8
0
100
AcDbBlockBegin
  2
*Paper_Space
 70
     0
 10
0.0
 20
0.0
 30
0.0
  3
*Paper_Space
  1

  0
ENDBLK
  5
1D
330
1B
100
AcDbEntity
 67
     1
  8
0
100
AcDbBlockEnd
  0
BLOCK
  5
24
330
23
100
AcDbEntity
  8
0
100
AcDbBlockBegin
  2
*Paper_Space0
 70
     0
 10
0.0
 20
0.0
 30
0.0
  3
*Paper_Space0
  1

  0
ENDBLK
  5
25
330
23
100
AcDbEntity
  8
0
100
AcDbBlockEnd
  0
BLOCK
  5
48
330
47
100
AcDbEntity
  8
0
100
AcDbBlockBegin
  2
3030941_WST_2_5-select__1
 70
     0
 10
-10.12780408076781
 20
31.62228675639191
 30
0.0
  3
3030941_WST_2_5-select__1
  1

  0
LINE
  5
83
330
47
100
AcDbEntity
  8
0
  6
Continuous
 62
     7
100
AcDbLine
 10
-3.60735966996816
 20
33.98171169368818
 30
0.0
 11
-3.45793042460691
 21
34.56889832956009
 31
0.0
  0
LINE
  5
84
330
47
100
AcDbEntity
  8
0
  6
Continuous
 62
     7
100
AcDbLine
 10
-1.03235966996817
 20
36.2117271084331
 30
0.0
 11
-1.99828549625724
 21
36.08231758588177
 31
0.0
  0
LINE
  5
85
330
47
100
AcDbEntity
  8
0
  6
Continuous
 62
     7
100
AcDbLine
 10
-2.63674973711825
 20
34.8222845527017
 30
0.0
 11
-3.45793042460693
 21
34.71226720167532
 31
0.0
  0
LINE
  5
86
330
47
100
AcDbEntity
  8
0
  6
Continuous
 62
     7
100
AcDbLine
 10
-3.45793042460691
 20
34.56889832956009
 30
0.0
 11
-4.42385625089598
 21
34.43948880700875
 31
0.0
  0
LINE
  5
87
330
47
100
AcDbEntity
  8
0
  6
Continuous
 62
     7
100
AcDbLine
 10
-3.60735966996816
 20
33.98171169368818
 30
0.0
 11
-4.57328549625723
 21
33.85230217113684
 31
0.0
  0
LINE
  5
88
330
47
100
AcDbEntity
  8
0
  6
Continuous
 62
     7
100
AcDbLine
 10
-2.07907220129314
 20
35.76302457916688
 30
0.0
 11
-2.63674973711825
 21
34.8222845527017
 31
0.0
  0
LINE
  5
89
330
47
100
AcDbEntity
  8
0
  6
Continuous
 62
     7
100
AcDbLine
 10
-2.07907220129339
 20
37.88905320799084
 30
0.0
 11
-2.07907220129314
 21
35.76302457916688
 31
0.0
  0
LINE
  5
8A
330
47
100
AcDbEntity
  8
0
  6
Continuous
 62
     7
100
AcDbLine
 10
-3.45793042460691
 20
34.56889832956009
 30
0.0
 11
-3.45793042460716
 21
36.69492695838405
 31
0.0
  0
LINE
  5
8B
330
47
100
AcDbEntity
  8
0
  6
Continuous
 62
     7
100
AcDbLine
 10
1.69206957539308
 20
39.02892915904994
 30
0.0
 11
1.69206957539284
 21
41.1549577878739
 31
0.0
  0
LINE
  5
8C
330
47
100
AcDbEntity
  8
0
  6
Continuous
 62
     7
100
AcDbLine
 10
-4.69479137887559
 20
40.06659427406606
 30
0.0
 11
-4.54479137887559
 21
40.19649808463374
 31
0.0
  0
LINE
  5
8D
330
47
100
AcDbEntity
  8
0
  6
Continuous
 62
     7
100
AcDbLine
 10
-4.9778040807678
 20
40.14829300387684
 30
0.0
 11
-4.9778040807678
 21
40.49470316539063
 31
0.0
  0
LINE
  5
8E
330
47
100
AcDbEntity
  8
0
  6
Continuous
 62
     7
100
AcDbLine
 10
2.51325026288174
 20
39.28231538219156
 30
0.0
 11
3.07092779870685
 21
40.22305540865673
 31
0.0
  0
LINE
  5
8F
330
47
100
AcDbEntity
  8
0
  6
Continuous
 62
     7
100
AcDbLine
 10
-4.54479137887559
 20
40.19649808463374
 30
0.0
 11
-1.73020881657617
 21
39.38399808463375
 31
0.0
  0
LINE
  5
90
330
47
100
AcDbEntity
  8
0
  6
Continuous
 62
     7
100
AcDbLine
 10
-1.29719611468394
 20
39.43220316539063
 30
0.0
 11
-4.9778040807678
 21
40.49470316539063
 31
0.0
  0
LINE
  5
91
330
47
100
AcDbEntity
  8
0
  6
Continuous
 62
     7
100
AcDbLine
 10
-5.27780408076781
 20
40.23489554425529
 30
0.0
 11
-1.59719611468395
 21
39.17239554425529
 31
0.0
  0
LINE
  5
92
330
47
100
AcDbEntity
  8
0
  6
Continuous
 62
     7
100
AcDbLine
 10
0.4959277987066
 20
40.11906862273577
 30
0.0
 11
0.49592779870685
 21
37.99303999391181
 31
0.0
  0
LINE
  5
93
330
47
100
AcDbEntity
  8
0
  6
Continuous
 62
     7
100
AcDbLine
 10
-1.03235966996817
 20
36.2117271084331
 30
0.0
 11
-0.88293042460692
 21
36.798913744305
 31
0.0
  0
LINE
  5
94
330
47
100
AcDbEntity
  8
0
  6
Continuous
 62
     7
100
AcDbLine
 10
-0.06174973711825
 20
37.05229996744663
 30
0.0
 11
-0.88293042460693
 21
36.94228261642026
 31
0.0
  0
LINE
  5
95
330
47
100
AcDbEntity
  8
0
  6
Continuous
 62
     7
100
AcDbLine
 10
-0.88293042460692
 20
36.798913744305
 30
0.0
 11
-0.88293042460716
 21
38.92494237312897
 31
0.0
  0
LINE
  5
96
330
47
100
AcDbEntity
  8
0
  6
Continuous
 62
     7
100
AcDbLine
 10
-1.84885625089598
 20
36.66950422175368
 30
0.0
 11
-1.99828549625724
 21
36.08231758588177
 31
0.0
  0
LINE
  5
97
330
47
100
AcDbEntity
  8
0
  6
Continuous
 62
     7
100
AcDbLine
 10
0.49592779870685
 20
37.99303999391181
 30
0.0
 11
-0.06174973711825
 21
37.05229996744663
 31
0.0
  0
LINE
  5
98
330
47
100
AcDbEntity
  8
0
  6
Continuous
 62
     7
100
AcDbLine
 10
-0.88293042460692
 20
36.798913744305
 30
0.0
 11
-1.84885625089598
 21
36.66950422175368
 31
0.0
  0
LINE
  5
99
330
47
100
AcDbEntity
  8
0
  6
Continuous
 62
     7
100
AcDbLine
 10
0.97780388531606
 20
40.53638555521579
 30
0.0
 11
0.97780388531606
 21
41.40241095900022
 31
0.0
  0
LINE
  5
9A
330
47
100
AcDbEntity
  8
0
  6
Continuous
 62
     7
100
AcDbLine
 10
0.72614374910401
 20
38.8995196364986
 30
0.0
 11
0.72614374910385
 21
40.31844148413616
 31
0.0
  0
LINE
  5
9B
330
47
100
AcDbEntity
  8
0
  6
Continuous
 62
     7
100
AcDbLine
 10
1.27780388531605
 20
41.66221858013555
 30
0.0
 11
1.27780388531605
 21
40.79619317635112
 31
0.0
  0
LINE
  5
9C
330
47
100
AcDbEntity
  8
0
  6
Continuous
 62
     7
100
AcDbLine
 10
0.69479118342383
 20
41.484109688811
 30
0.0
 11
0.84479118342384
 21
41.61401349937867
 31
0.0
  0
LINE
  5
9D
330
47
100
AcDbEntity
  8
0
  6
Continuous
 62
     7
100
AcDbLine
 10
0.97780388531606
 20
40.88279571672956
 30
0.0
 11
1.27780388531605
 21
40.79619317635112
 31
0.0
  0
LINE
  5
9E
330
47
100
AcDbEntity
  8
0
  6
Continuous
 62
     7
100
AcDbLine
 10
-2.40280408076781
 20
42.37830841862178
 30
0.0
 11
-2.40280408076781
 21
42.72471858013555
 31
0.0
  0
LINE
  5
9F
330
47
100
AcDbEntity
  8
0
  6
Continuous
 62
     7
100
AcDbLine
 10
-2.11979137887559
 20
42.296609688811
 30
0.0
 11
-1.96979137887558
 21
42.42651349937867
 31
0.0
  0
LINE
  5
A0
330
47
100
AcDbEntity
  8
0
  6
Continuous
 62
     7
100
AcDbLine
 10
-1.96979137887558
 20
42.42651349937867
 30
0.0
 11
0.84479118342384
 21
41.61401349937867
 31
0.0
  0
LINE
  5
A1
330
47
100
AcDbEntity
  8
0
  6
Continuous
 62
     7
100
AcDbLine
 10
0.84479118342384
 20
41.44080841862178
 30
0.0
 11
0.84479118342384
 21
41.61401349937867
 31
0.0
  0
LINE
  5
A2
330
47
100
AcDbEntity
  8
0
  6
Continuous
 62
     7
100
AcDbLine
 10
1.27780388531605
 20
41.66221858013555
 30
0.0
 11
-2.40280408076781
 21
42.72471858013555
 31
0.0
  0
LINE
  5
A3
330
47
100
AcDbEntity
  8
0
  6
Continuous
 62
     7
100
AcDbLine
 10
0.97780388531606
 20
41.40241095900022
 30
0.0
 11
-1.29719611468394
 21
39.43220316539063
 31
0.0
  0
LINE
  5
A4
330
47
100
AcDbEntity
  8
0
  6
Continuous
 62
     7
100
AcDbLine
 10
-2.7028040807678
 20
42.46491095900022
 30
0.0
 11
0.97780388531606
 21
41.40241095900022
 31
0.0
  0
LINE
  5
A5
330
47
100
AcDbEntity
  8
0
  6
Continuous
 62
     7
100
AcDbLine
 10
0.97780388531606
 20
40.53638555521579
 30
0.0
 11
-1.29719611468394
 21
38.56617776160618
 31
0.0
  0
LINE
  5
A6
330
47
100
AcDbEntity
  8
0
  6
Continuous
 62
     7
100
AcDbLine
 10
-10.12780408076781
 20
35.16864693211632
 30
0.0
 11
-10.12780408076781
 21
36.03467233590077
 31
0.0
  0
LINE
  5
A7
330
47
100
AcDbEntity
  8
0
  6
Continuous
 62
     7
100
AcDbLine
 10
-9.6459277952123
 20
35.02954123052554
 30
0.0
 11
-9.64592779521211
 21
33.38186541706489
 31
0.0
  0
LINE
  5
A8
330
47
100
AcDbEntity
  8
0
  6
Continuous
 62
     7
100
AcDbLine
 10
-9.38710875010959
 20
32.89890250392043
 30
0.0
 11
-9.64592779521211
 21
33.38186541706489
 31
0.0
  0
LINE
  5
A9
330
47
100
AcDbEntity
  8
0
  6
Continuous
 62
     7
100
AcDbLine
 10
-7.50355338884581
 20
32.28522566911105
 30
0.0
 11
-8.82943121428428
 21
32.10759172281667
 31
0.0
  0
LINE
  5
AA
330
47
100
AcDbEntity
  8
0
  6
Continuous
 62
     7
100
AcDbLine
 10
-8.82943121428428
 20
32.10759172281667
 30
0.0
 11
-9.38710875010959
 21
32.89890250392043
 31
0.0
  0
LINE
  5
AB
330
47
100
AcDbEntity
  8
0
  6
Continuous
 62
     7
100
AcDbLine
 10
-9.38710875010959
 20
32.89890250392043
 30
0.0
 11
-9.38710875010982
 21
34.95482660784488
 31
0.0
  0
LINE
  5
AC
330
47
100
AcDbEntity
  8
0
  6
Continuous
 62
     7
100
AcDbLine
 10
-7.14828549625725
 20
31.62228675639191
 30
0.0
 11
-7.50355338884581
 21
32.28522566911105
 31
0.0
  0
LINE
  5
AD
330
47
100
AcDbEntity
  8
0
  6
Continuous
 62
     7
100
AcDbLine
 10
-7.50355338884581
 20
32.28522566911105
 30
0.0
 11
-7.50355338884604
 21
34.41109101041528
 31
0.0
  0
LINE
  5
AE
330
47
100
AcDbEntity
  8
0
  6
Continuous
 62
     7
100
AcDbLine
 10
-10.12780408076781
 20
35.16864693211632
 30
0.0
 11
-6.44719611468395
 21
34.10614693211632
 31
0.0
  0
LINE
  5
AF
330
47
100
AcDbEntity
  8
0
  6
Continuous
 62
     7
100
AcDbLine
 10
-6.18235966996815
 20
31.75169627894323
 30
0.0
 11
-7.14828549625725
 21
31.62228675639191
 31
0.0
  0
LINE
  5
B0
330
47
100
AcDbEntity
  8
0
  6
Continuous
 62
     7
100
AcDbLine
 10
-6.18235966996815
 20
31.75169627894323
 30
0.0
 11
-6.03293042460692
 21
32.33888291481515
 31
0.0
  0
LINE
  5
B1
330
47
100
AcDbEntity
  8
0
  6
Continuous
 62
     7
100
AcDbLine
 10
-6.99885625089599
 20
32.20947339226382
 30
0.0
 11
-7.14828549625725
 21
31.62228675639191
 31
0.0
  0
LINE
  5
B2
330
47
100
AcDbEntity
  8
0
  6
Continuous
 62
     7
100
AcDbLine
 10
-6.99885625089599
 20
32.20947339226382
 30
0.0
 11
-6.99885625089622
 21
34.26539749618799
 31
0.0
  0
LINE
  5
B3
330
47
100
AcDbEntity
  8
0
  6
Continuous
 62
     7
100
AcDbLine
 10
-4.57328549625723
 20
33.85230217113684
 30
0.0
 11
-4.6540722012932
 21
34.00305221502198
 31
0.0
  0
LINE
  5
B4
330
47
100
AcDbEntity
  8
0
  6
Continuous
 62
     7
100
AcDbLine
 10
-4.65407220129339
 20
35.65903779324592
 30
0.0
 11
-4.65407220129315
 21
33.53300916442195
 31
0.0
  0
LINE
  5
B5
330
47
100
AcDbEntity
  8
0
  6
Continuous
 62
     7
100
AcDbLine
 10
-6.03293042460692
 20
32.33888291481515
 30
0.0
 11
-6.03293042460716
 21
34.46491154363911
 31
0.0
  0
LINE
  5
B6
330
47
100
AcDbEntity
  8
0
  6
Continuous
 62
     7
100
AcDbLine
 10
-4.42385625089598
 20
34.43948880700875
 30
0.0
 11
-4.42385625089614
 21
35.85841065464631
 31
0.0
  0
LINE
  5
B7
330
47
100
AcDbEntity
  8
0
  6
Continuous
 62
     7
100
AcDbLine
 10
-6.44719611468395
 20
34.97217233590077
 30
0.0
 11
-6.44719611468395
 21
34.10614693211632
 31
0.0
  0
LINE
  5
B8
330
47
100
AcDbEntity
  8
0
  6
Continuous
 62
     7
100
AcDbLine
 10
-4.17219611468395
 20
36.94238012951036
 30
0.0
 11
-6.44719611468395
 21
34.97217233590077
 31
0.0
  0
LINE
  5
B9
330
47
100
AcDbEntity
  8
0
  6
Continuous
 62
     7
100
AcDbLine
 10
-4.17219611468395
 20
36.07635472572592
 30
0.0
 11
-4.17219611468395
 21
36.94238012951036
 31
0.0
  0
LINE
  5
BA
330
47
100
AcDbEntity
  8
0
  6
Continuous
 62
     7
100
AcDbLine
 10
-4.17219611468395
 20
36.07635472572592
 30
0.0
 11
-6.44719611468395
 21
34.10614693211632
 31
0.0
  0
LINE
  5
BB
330
47
100
AcDbEntity
  8
0
  6
Continuous
 62
     7
100
AcDbLine
 10
-6.03293042460692
 20
32.33888291481515
 30
0.0
 11
-6.99885625089599
 21
32.20947339226382
 31
0.0
  0
LINE
  5
BC
330
47
100
AcDbEntity
  8
0
  6
Continuous
 62
     7
100
AcDbLine
 10
-4.42385625089598
 20
34.43948880700875
 30
0.0
 11
-4.57328549625723
 21
33.85230217113684
 31
0.0
  0
LINE
  5
BD
330
47
100
AcDbEntity
  8
0
  6
Continuous
 62
     7
100
AcDbLine
 10
-5.21174973711825
 20
32.59226913795677
 30
0.0
 11
-6.03293042460693
 21
32.48225178693039
 31
0.0
  0
LINE
  5
BE
330
47
100
AcDbEntity
  8
0
  6
Continuous
 62
     7
100
AcDbLine
 10
-6.44719611468395
 20
34.97217233590077
 30
0.0
 11
-10.12780408076781
 21
36.03467233590077
 31
0.0
  0
LINE
  5
BF
330
47
100
AcDbEntity
  8
0
  6
Continuous
 62
     7
100
AcDbLine
 10
-4.65407220129315
 20
33.53300916442195
 30
0.0
 11
-5.21174973711825
 21
32.59226913795677
 31
0.0
  0
LINE
  5
C0
330
47
100
AcDbEntity
  8
0
  6
Continuous
 62
     7
100
AcDbLine
 10
3.55280388531605
 20
43.11281113147449
 30
0.0
 11
3.85280388531605
 21
43.02620859109604
 31
0.0
  0
LINE
  5
C1
330
47
100
AcDbEntity
  8
0
  6
Continuous
 62
     7
100
AcDbLine
 10
0.1721959192322
 20
44.6083238333667
 30
0.0
 11
0.17219591923219
 21
44.95473399488049
 31
0.0
  0
LINE
  5
C2
330
47
100
AcDbEntity
  8
0
  6
Continuous
 62
     7
100
AcDbLine
 10
0.45520862112441
 20
44.52662510355592
 30
0.0
 11
0.60520862112441
 21
44.6565289141236
 31
0.0
  0
LINE
  5
C3
330
47
100
AcDbEntity
  8
0
  6
Continuous
 62
     7
100
AcDbLine
 10
3.41979118342383
 20
43.67082383336671
 30
0.0
 11
3.41979118342383
 21
43.8440289141236
 31
0.0
  0
LINE
  5
C4
330
47
100
AcDbEntity
  8
0
  6
Continuous
 62
     7
100
AcDbLine
 10
3.26979118342383
 20
43.71412510355593
 30
0.0
 11
3.41979118342383
 21
43.8440289141236
 31
0.0
  0
LINE
  5
C5
330
47
100
AcDbEntity
  8
0
  6
Continuous
 62
     7
100
AcDbLine
 10
0.60520862112441
 20
44.6565289141236
 30
0.0
 11
3.41979118342383
 21
43.8440289141236
 31
0.0
  0
LINE
  5
C6
330
47
100
AcDbEntity
  8
0
  6
Continuous
 62
     7
100
AcDbLine
 10
-0.12780408076781
 20
44.69492637374515
 30
0.0
 11
3.55280388531605
 21
43.63242637374515
 31
0.0
  0
LINE
  5
C7
330
47
100
AcDbEntity
  8
0
  6
Continuous
 62
     7
100
AcDbLine
 10
3.85280388531605
 20
43.89223399488049
 30
0.0
 11
0.17219591923219
 21
44.95473399488049
 31
0.0
  0
LINE
  5
C8
330
47
100
AcDbEntity
  8
0
  6
Continuous
 62
     7
100
AcDbLine
 10
3.85280388531605
 20
43.89223399488049
 30
0.0
 11
3.85280388531605
 21
43.02620859109604
 31
0.0
  0
LINE
  5
C9
330
47
100
AcDbEntity
  8
0
  6
Continuous
 62
     7
100
AcDbLine
 10
0.17219591923219
 20
44.95473399488049
 30
0.0
 11
2.44719591923219
 21
46.92494178849008
 31
0.0
  0
LINE
  5
CA
330
47
100
AcDbEntity
  8
0
  6
Continuous
 62
     7
100
AcDbLine
 10
5.08825026288174
 20
41.51233079693648
 30
0.0
 11
4.26706957539306
 21
41.40231344591011
 31
0.0
  0
LINE
  5
CB
330
47
100
AcDbEntity
  8
0
  6
Continuous
 62
     7
100
AcDbLine
 10
4.11764033003183
 20
40.67175793792296
 30
0.0
 11
4.26706957539308
 21
41.25894457379486
 31
0.0
  0
LINE
  5
CC
330
47
100
AcDbEntity
  8
0
  6
Continuous
 62
     7
100
AcDbLine
 10
4.26706957539308
 20
41.25894457379486
 30
0.0
 11
4.26706957539283
 21
43.38497320261882
 31
0.0
  0
LINE
  5
CD
330
47
100
AcDbEntity
  8
0
  6
Continuous
 62
     7
100
AcDbLine
 10
3.15171450374277
 20
40.54234841537163
 30
0.0
 11
3.07092779870679
 21
40.69309845925677
 31
0.0
  0
LINE
  5
CE
330
47
100
AcDbEntity
  8
0
  6
Continuous
 62
     7
100
AcDbLine
 10
3.30114374910401
 20
41.12953505124354
 30
0.0
 11
3.30114374910384
 21
42.54845689888109
 31
0.0
  0
LINE
  5
CF
330
47
100
AcDbEntity
  8
0
  6
Continuous
 62
     7
100
AcDbLine
 10
3.07092779870661
 20
42.3490840374807
 30
0.0
 11
3.07092779870685
 21
40.22305540865673
 31
0.0
  0
LINE
  5
D0
330
47
100
AcDbEntity
  8
0
  6
Continuous
 62
     7
100
AcDbLine
 10
3.30114374910401
 20
41.12953505124354
 30
0.0
 11
3.15171450374277
 21
40.54234841537163
 31
0.0
  0
LINE
  5
D1
330
47
100
AcDbEntity
  8
0
  6
Continuous
 62
     7
100
AcDbLine
 10
4.26706957539308
 20
41.25894457379486
 30
0.0
 11
3.30114374910401
 21
41.12953505124354
 31
0.0
  0
LINE
  5
D2
330
47
100
AcDbEntity
  8
0
  6
Continuous
 62
     7
100
AcDbLine
 10
4.11764033003183
 20
40.67175793792296
 30
0.0
 11
3.15171450374277
 21
40.54234841537163
 31
0.0
  0
LINE
  5
D3
330
47
100
AcDbEntity
  8
0
  6
Continuous
 62
     7
100
AcDbLine
 10
5.64592779870684
 20
42.45307082340167
 30
0.0
 11
5.08825026288174
 21
41.51233079693648
 31
0.0
  0
LINE
  5
D4
330
47
100
AcDbEntity
  8
0
  6
Continuous
 62
     7
100
AcDbLine
 10
3.55280388531605
 20
42.76640096996071
 30
0.0
 11
1.27780388531605
 21
40.79619317635112
 31
0.0
  0
LINE
  5
D5
330
47
100
AcDbEntity
  8
0
  6
Continuous
 62
     7
100
AcDbLine
 10
3.55280388531605
 20
42.76640096996071
 30
0.0
 11
3.55280388531605
 21
43.63242637374515
 31
0.0
  0
LINE
  5
D6
330
47
100
AcDbEntity
  8
0
  6
Continuous
 62
     7
100
AcDbLine
 10
6.12780388531605
 20
44.99641638470564
 30
0.0
 11
6.12780388531605
 21
45.86244178849008
 31
0.0
  0
LINE
  5
D7
330
47
100
AcDbEntity
  8
0
  6
Continuous
 62
     7
100
AcDbLine
 10
6.12780388531605
 20
44.99641638470564
 30
0.0
 11
3.85280388531605
 21
43.02620859109604
 31
0.0
  0
LINE
  5
D8
330
47
100
AcDbEntity
  8
0
  6
Continuous
 62
     7
100
AcDbLine
 10
6.12780388531605
 20
45.86244178849008
 30
0.0
 11
3.85280388531605
 21
43.89223399488049
 31
0.0
  0
LINE
  5
D9
330
47
100
AcDbEntity
  8
0
  6
Continuous
 62
     7
100
AcDbLine
 10
5.6459277987066
 20
44.57909945222563
 30
0.0
 11
5.64592779870684
 21
42.45307082340167
 31
0.0
  0
LINE
  5
DA
330
47
100
AcDbEntity
  8
0
  6
Continuous
 62
     7
100
AcDbLine
 10
2.44719591923219
 20
46.92494178849008
 30
0.0
 11
6.12780388531605
 21
45.86244178849008
 31
0.0
  0
LINE
  5
DB
330
47
100
AcDbEntity
  8
0
  6
Continuous
 62
     7
100
AcDbLine
 10
-1.99828549625724
 20
36.08231758588177
 30
0.0
 11
-2.0790722012932
 21
36.23306762976691
 31
0.0
  0
LINE
  5
DC
330
47
100
AcDbEntity
  8
0
  6
Continuous
 62
     7
100
AcDbLine
 10
-4.17219611468395
 20
36.4227648872397
 30
0.0
 11
-3.87219611468394
 21
36.33616234686126
 31
0.0
  0
LINE
  5
DD
330
47
100
AcDbEntity
  8
0
  6
Continuous
 62
     7
100
AcDbLine
 10
-7.55280408076781
 20
37.91827758913192
 30
0.0
 11
-7.55280408076781
 21
38.26468775064569
 31
0.0
  0
LINE
  5
DE
330
47
100
AcDbEntity
  8
0
  6
Continuous
 62
     7
100
AcDbLine
 10
-1.59719611468395
 20
38.30637014047085
 30
0.0
 11
-1.59719611468395
 21
39.17239554425529
 31
0.0
  0
LINE
  5
DF
330
47
100
AcDbEntity
  8
0
  6
Continuous
 62
     7
100
AcDbLine
 10
-4.45520881657616
 20
37.02407885932114
 30
0.0
 11
-4.30520881657617
 21
37.1539826698888
 31
0.0
  0
LINE
  5
E0
330
47
100
AcDbEntity
  8
0
  6
Continuous
 62
     7
100
AcDbLine
 10
-1.84885625089598
 20
36.66950422175368
 30
0.0
 11
-1.84885625089615
 21
38.08842606939123
 31
0.0
  0
LINE
  5
E1
330
47
100
AcDbEntity
  8
0
  6
Continuous
 62
     7
100
AcDbLine
 10
-3.87219611468394
 20
37.20218775064569
 30
0.0
 11
-3.87219611468394
 21
36.33616234686126
 31
0.0
  0
LINE
  5
E2
330
47
100
AcDbEntity
  8
0
  6
Continuous
 62
     7
100
AcDbLine
 10
-4.30520881657616
 20
36.98077758913192
 30
0.0
 11
-4.30520881657617
 21
37.1539826698888
 31
0.0
  0
LINE
  5
E3
330
47
100
AcDbEntity
  8
0
  6
Continuous
 62
     7
100
AcDbLine
 10
-1.59719611468395
 20
38.30637014047085
 30
0.0
 11
-3.87219611468394
 21
36.33616234686126
 31
0.0
  0
LINE
  5
E4
330
47
100
AcDbEntity
  8
0
  6
Continuous
 62
     7
100
AcDbLine
 10
-1.59719611468395
 20
39.17239554425529
 30
0.0
 11
-3.87219611468394
 21
37.20218775064569
 31
0.0
  0
LINE
  5
E5
330
47
100
AcDbEntity
  8
0
  6
Continuous
 62
     7
100
AcDbLine
 10
-7.11979137887558
 20
37.96648266988881
 30
0.0
 11
-4.30520881657617
 21
37.1539826698888
 31
0.0
  0
LINE
  5
E6
330
47
100
AcDbEntity
  8
0
  6
Continuous
 62
     7
100
AcDbLine
 10
-7.26979137887558
 20
37.83657885932114
 30
0.0
 11
-7.11979137887558
 21
37.96648266988881
 31
0.0
  0
LINE
  5
E7
330
47
100
AcDbEntity
  8
0
  6
Continuous
 62
     7
100
AcDbLine
 10
-3.87219611468394
 20
37.20218775064569
 30
0.0
 11
-7.55280408076781
 21
38.26468775064569
 31
0.0
  0
LINE
  5
E8
330
47
100
AcDbEntity
  8
0
  6
Continuous
 62
     7
100
AcDbLine
 10
-7.85280408076781
 20
38.00488012951035
 30
0.0
 11
-4.17219611468395
 21
36.94238012951036
 31
0.0
  0
LINE
  5
E9
330
47
100
AcDbEntity
  8
0
  6
Continuous
 62
     7
100
AcDbLine
 10
-10.12780408076781
 20
36.03467233590077
 30
0.0
 11
-7.85280408076781
 21
38.00488012951035
 31
0.0
  0
LINE
  5
EA
330
47
100
AcDbEntity
  8
0
  6
Continuous
 62
     7
100
AcDbLine
 10
-2.40280408076781
 20
42.72471858013555
 30
0.0
 11
-0.12780408076781
 21
44.69492637374515
 31
0.0
  0
LINE
  5
EB
330
47
100
AcDbEntity
  8
0
  6
Continuous
 62
     7
100
AcDbLine
 10
-4.9778040807678
 20
40.49470316539063
 30
0.0
 11
-2.7028040807678
 21
42.46491095900022
 31
0.0
  0
LINE
  5
EC
330
47
100
AcDbEntity
  8
0
  6
Continuous
 62
     7
100
AcDbLine
 10
1.54264033003184
 20
38.44174252317803
 30
0.0
 11
0.57671450374277
 21
38.3123330006267
 31
0.0
  0
LINE
  5
ED
330
47
100
AcDbEntity
  8
0
  6
Continuous
 62
     7
100
AcDbLine
 10
0.57671450374277
 20
38.3123330006267
 30
0.0
 11
0.4959277987068
 21
38.46308304451184
 31
0.0
  0
LINE
  5
EE
330
47
100
AcDbEntity
  8
0
  6
Continuous
 62
     7
100
AcDbLine
 10
1.54264033003184
 20
38.44174252317803
 30
0.0
 11
1.69206957539308
 21
39.02892915904994
 31
0.0
  0
LINE
  5
EF
330
47
100
AcDbEntity
  8
0
  6
Continuous
 62
     7
100
AcDbLine
 10
0.72614374910401
 20
38.8995196364986
 30
0.0
 11
0.57671450374277
 21
38.3123330006267
 31
0.0
  0
LINE
  5
F0
330
47
100
AcDbEntity
  8
0
  6
Continuous
 62
     7
100
AcDbLine
 10
-1.59719611468395
 20
38.65278030198464
 30
0.0
 11
-1.29719611468394
 21
38.56617776160618
 31
0.0
  0
LINE
  5
F1
330
47
100
AcDbEntity
  8
0
  6
Continuous
 62
     7
100
AcDbLine
 10
-1.88020881657617
 20
39.25409427406607
 30
0.0
 11
-1.73020881657617
 21
39.38399808463375
 31
0.0
  0
LINE
  5
F2
330
47
100
AcDbEntity
  8
0
  6
Continuous
 62
     7
100
AcDbLine
 10
-1.29719611468394
 20
39.43220316539063
 30
0.0
 11
-1.29719611468394
 21
38.56617776160618
 31
0.0
  0
LINE
  5
F3
330
47
100
AcDbEntity
  8
0
  6
Continuous
 62
     7
100
AcDbLine
 10
-1.73020881657616
 20
39.21079300387684
 30
0.0
 11
-1.73020881657617
 21
39.38399808463375
 31
0.0
  0
LINE
  5
F4
330
47
100
AcDbEntity
  8
0
  6
Continuous
 62
     7
100
AcDbLine
 10
2.51325026288174
 20
39.28231538219156
 30
0.0
 11
1.69206957539306
 21
39.17229803116518
 31
0.0
  0
LINE
  5
F5
330
47
100
AcDbEntity
  8
0
  6
Continuous
 62
     7
100
AcDbLine
 10
1.69206957539308
 20
39.02892915904994
 30
0.0
 11
0.72614374910401
 21
38.8995196364986
 31
0.0
  0
LINE
  5
F6
330
47
100
AcDbEntity
  8
0
  6
Continuous
 62
     7
100
AcDbLine
 10
-7.55280408076781
 20
38.26468775064569
 30
0.0
 11
-5.27780408076781
 21
40.23489554425529
 31
0.0
  0
LINE
  5
F7
330
47
100
AcDbEntity
  8
0
  6
Continuous
 62
     7
100
AcDbLine
 10
3.55280388531605
 20
43.63242637374515
 30
0.0
 11
1.27780388531605
 21
41.66221858013555
 31
0.0
  0
ENDBLK
  5
49
330
47
100
AcDbEntity
  8
0
100
AcDbBlockEnd
  0
BLOCK
  5
4C
330
4A
100
AcDbEntity
  8
0
100
AcDbBlockBegin
  2
Allg1
 70
     0
 10
-2.00000000001403
 20
39.00000000000796
 30
0.0
  3
Allg1
  1

  0
INSERT
  5
4B
330
4A
100
AcDbEntity
  8
0
100
AcDbBlockReference
  2
3030941_WST_2_5-select__1
 10
-10.12780408076781
 20
31.62228675639191
 30
0.0
  0
MTEXT
  5
F9
330
4A
100
AcDbEntity
  8
1
 62
     6
100
AcDbMText
 10
-2.00000000001398
 20
28.5750581828878
 30
0.0
 40
2.5
 41
0.0
 71
     2
 72
     1
  1
 
  7
CONVERTER_11
 73
     1
 44
1.32052821128451
  0
ENDBLK
  5
4D
330
4A
100
AcDbEntity
  8
0
100
AcDbBlockEnd
  0
BLOCK
  5
4F
330
4E
100
AcDbEntity
  8
0
100
AcDbBlockBegin
  2
3030941_WST_2_5-select__2
 70
     0
 10
-52.82499993715079
 20
37.59999990464227
 30
0.0
  3
3030941_WST_2_5-select__2
  1

  0
LINE
  5
FA
330
4E
100
AcDbEntity
  8
0
  6
Continuous
 62
     7
100
AcDbLine
 10
-52.32499993715075
 20
47.2999999046423
 30
0.0
 11
-52.32499993715075
 21
47.89999990464231
 31
0.0
  0
LINE
  5
FB
330
4E
100
AcDbEntity
  8
0
  6
Continuous
 62
     7
100
AcDbLine
 10
-52.82499993715075
 20
47.2999999046423
 30
0.0
 11
-52.32499993715075
 21
47.2999999046423
 31
0.0
  0
LINE
  5
FC
330
4E
100
AcDbEntity
  8
0
  6
Continuous
 62
     7
100
AcDbLine
 10
-52.32499993715075
 20
47.89999990464231
 30
0.0
 11
-52.82499993715075
 21
47.8999999046423
 31
0.0
  0
LINE
  5
FD
330
4E
100
AcDbEntity
  8
0
  6
Continuous
 62
     7
100
AcDbLine
 10
-49.07499993715076
 20
47.8999999046423
 30
0.0
 11
-52.32499993715075
 21
47.89999990464231
 31
0.0
  0
LINE
  5
FE
330
4E
100
AcDbEntity
  8
0
  6
Continuous
 62
     7
100
AcDbLine
 10
-52.32499993715077
 20
42.14999990464229
 30
0.0
 11
-52.32499993715077
 21
42.7499999046423
 31
0.0
  0
LINE
  5
FF
330
4E
100
AcDbEntity
  8
0
  6
Continuous
 62
     7
100
AcDbLine
 10
-52.32499993715077
 20
42.7499999046423
 30
0.0
 11
-52.82499993715077
 21
42.74999990464229
 31
0.0
  0
LINE
  5
100
330
4E
100
AcDbEntity
  8
0
  6
Continuous
 62
     7
100
AcDbLine
 10
-52.82499993715077
 20
42.14999990464229
 30
0.0
 11
-52.32499993715077
 21
42.14999990464229
 31
0.0
  0
LINE
  5
101
330
4E
100
AcDbEntity
  8
0
  6
Continuous
 62
     7
100
AcDbLine
 10
-48.57499993715079
 20
37.59999990464227
 30
0.0
 11
-52.82499993715079
 21
37.59999990464229
 31
0.0
  0
LINE
  5
102
330
4E
100
AcDbEntity
  8
0
  6
Continuous
 62
     7
100
AcDbLine
 10
-49.07499993715074
 20
52.44999990464228
 30
0.0
 11
-49.07499993715074
 21
53.0499999046423
 31
0.0
  0
LINE
  5
103
330
4E
100
AcDbEntity
  8
0
  6
Continuous
 62
     7
100
AcDbLine
 10
-49.07499993715073
 20
57.59999990464227
 30
0.0
 11
-49.07499993715072
 21
58.19999990464229
 31
0.0
  0
LINE
  5
104
330
4E
100
AcDbEntity
  8
0
  6
Continuous
 62
     7
100
AcDbLine
 10
-52.82499993715079
 20
37.59999990464229
 30
0.0
 11
-52.82499993715077
 21
42.14999990464229
 31
0.0
  0
LINE
  5
105
330
4E
100
AcDbEntity
  8
0
  6
Continuous
 62
     7
100
AcDbLine
 10
-52.82499993715074
 20
53.0499999046423
 30
0.0
 11
-52.82499993715072
 21
57.5999999046423
 31
0.0
  0
LINE
  5
106
330
4E
100
AcDbEntity
  8
0
  6
Continuous
 62
     7
100
AcDbLine
 10
-52.82499993715077
 20
42.74999990464229
 30
0.0
 11
-52.82499993715075
 21
47.2999999046423
 31
0.0
  0
LINE
  5
107
330
4E
100
AcDbEntity
  8
0
  6
Continuous
 62
     7
100
AcDbLine
 10
-52.82499993715075
 20
47.8999999046423
 30
0.0
 11
-52.82499993715074
 21
52.4499999046423
 31
0.0
  0
LINE
  5
108
330
4E
100
AcDbEntity
  8
0
  6
Continuous
 62
     7
100
AcDbLine
 10
-48.57499993715074
 20
53.04999990464229
 30
0.0
 11
-49.07499993715074
 21
53.0499999046423
 31
0.0
  0
LINE
  5
109
330
4E
100
AcDbEntity
  8
0
  6
Continuous
 62
     7
100
AcDbLine
 10
-52.32499993715074
 20
53.04999990464231
 30
0.0
 11
-52.82499993715074
 21
53.0499999046423
 31
0.0
  0
LINE
  5
10A
330
4E
100
AcDbEntity
  8
0
  6
Continuous
 62
     7
100
AcDbLine
 10
-49.07499993715074
 20
53.0499999046423
 30
0.0
 11
-52.32499993715074
 21
53.04999990464231
 31
0.0
  0
LINE
  5
10B
330
4E
100
AcDbEntity
  8
0
  6
Continuous
 62
     7
100
AcDbLine
 10
-52.82499993715074
 20
52.4499999046423
 30
0.0
 11
-52.32499993715074
 21
52.44999990464229
 31
0.0
  0
LINE
  5
10C
330
4E
100
AcDbEntity
  8
0
  6
Continuous
 62
     7
100
AcDbLine
 10
-48.57499993715077
 20
42.14999990464227
 30
0.0
 11
-48.57499993715079
 21
37.59999990464227
 31
0.0
  0
LINE
  5
10D
330
4E
100
AcDbEntity
  8
0
  6
Continuous
 62
     7
100
AcDbLine
 10
-48.57499993715076
 20
47.29999990464228
 30
0.0
 11
-48.57499993715077
 21
42.74999990464229
 31
0.0
  0
LINE
  5
10E
330
4E
100
AcDbEntity
  8
0
  6
Continuous
 62
     7
100
AcDbLine
 10
-48.57499993715071
 20
62.74999990464228
 30
0.0
 11
-48.57499993715072
 21
58.19999990464229
 31
0.0
  0
LINE
  5
10F
330
4E
100
AcDbEntity
  8
0
  6
Continuous
 62
     7
100
AcDbLine
 10
-48.57499993715074
 20
52.44999990464229
 30
0.0
 11
-48.57499993715076
 21
47.89999990464229
 31
0.0
  0
LINE
  5
110
330
4E
100
AcDbEntity
  8
0
  6
Continuous
 62
     7
100
AcDbLine
 10
-49.07499993715077
 20
42.14999990464228
 30
0.0
 11
-48.57499993715077
 21
42.14999990464227
 31
0.0
  0
LINE
  5
111
330
4E
100
AcDbEntity
  8
0
  6
Continuous
 62
     7
100
AcDbLine
 10
-49.07499993715077
 20
42.14999990464228
 30
0.0
 11
-49.07499993715077
 21
42.74999990464228
 31
0.0
  0
LINE
  5
112
330
4E
100
AcDbEntity
  8
0
  6
Continuous
 62
     7
100
AcDbLine
 10
-49.07499993715077
 20
42.74999990464228
 30
0.0
 11
-52.32499993715077
 21
42.7499999046423
 31
0.0
  0
LINE
  5
113
330
4E
100
AcDbEntity
  8
0
  6
Continuous
 62
     7
100
AcDbLine
 10
-48.57499993715077
 20
42.74999990464229
 30
0.0
 11
-49.07499993715077
 21
42.74999990464228
 31
0.0
  0
LINE
  5
114
330
4E
100
AcDbEntity
  8
0
  6
Continuous
 62
     7
100
AcDbLine
 10
-52.32499993715077
 20
42.14999990464229
 30
0.0
 11
-49.07499993715077
 21
42.14999990464228
 31
0.0
  0
LINE
  5
115
330
4E
100
AcDbEntity
  8
0
  6
Continuous
 62
     7
100
AcDbLine
 10
-49.07499993715074
 20
52.44999990464228
 30
0.0
 11
-48.57499993715074
 21
52.44999990464229
 31
0.0
  0
LINE
  5
116
330
4E
100
AcDbEntity
  8
0
  6
Continuous
 62
     7
100
AcDbLine
 10
-52.32499993715074
 20
52.44999990464229
 30
0.0
 11
-52.32499993715074
 21
53.04999990464231
 31
0.0
  0
LINE
  5
117
330
4E
100
AcDbEntity
  8
0
  6
Continuous
 62
     7
100
AcDbLine
 10
-52.32499993715074
 20
52.44999990464229
 30
0.0
 11
-49.07499993715074
 21
52.44999990464228
 31
0.0
  0
LINE
  5
118
330
4E
100
AcDbEntity
  8
0
  6
Continuous
 62
     7
100
AcDbLine
 10
-49.07499993715076
 20
47.29999990464229
 30
0.0
 11
-49.07499993715076
 21
47.8999999046423
 31
0.0
  0
LINE
  5
119
330
4E
100
AcDbEntity
  8
0
  6
Continuous
 62
     7
100
AcDbLine
 10
-49.07499993715076
 20
47.29999990464229
 30
0.0
 11
-48.57499993715076
 21
47.29999990464228
 31
0.0
  0
LINE
  5
11A
330
4E
100
AcDbEntity
  8
0
  6
Continuous
 62
     7
100
AcDbLine
 10
-52.32499993715075
 20
47.2999999046423
 30
0.0
 11
-49.07499993715076
 21
47.29999990464229
 31
0.0
  0
LINE
  5
11B
330
4E
100
AcDbEntity
  8
0
  6
Continuous
 62
     7
100
AcDbLine
 10
-48.57499993715076
 20
47.89999990464229
 30
0.0
 11
-49.07499993715076
 21
47.8999999046423
 31
0.0
  0
LINE
  5
11C
330
4E
100
AcDbEntity
  8
0
  6
Continuous
 62
     7
100
AcDbLine
 10
-52.32499993715072
 20
57.59999990464229
 30
0.0
 11
-52.32499993715072
 21
58.1999999046423
 31
0.0
  0
LINE
  5
11D
330
4E
100
AcDbEntity
  8
0
  6
Continuous
 62
     7
100
AcDbLine
 10
-48.57499993715072
 20
58.19999990464229
 30
0.0
 11
-49.07499993715072
 21
58.19999990464229
 31
0.0
  0
LINE
  5
11E
330
4E
100
AcDbEntity
  8
0
  6
Continuous
 62
     7
100
AcDbLine
 10
-52.32499993715072
 20
58.1999999046423
 30
0.0
 11
-52.82499993715072
 21
58.1999999046423
 31
0.0
  0
LINE
  5
11F
330
4E
100
AcDbEntity
  8
0
  6
Continuous
 62
     7
100
AcDbLine
 10
-49.07499993715072
 20
58.19999990464229
 30
0.0
 11
-52.32499993715072
 21
58.1999999046423
 31
0.0
  0
LINE
  5
120
330
4E
100
AcDbEntity
  8
0
  6
Continuous
 62
     7
100
AcDbLine
 10
-52.82499993715071
 20
62.7499999046423
 30
0.0
 11
-48.57499993715071
 21
62.74999990464228
 31
0.0
  0
LINE
  5
121
330
4E
100
AcDbEntity
  8
0
  6
Continuous
 62
     7
100
AcDbLine
 10
-49.07499993715073
 20
57.59999990464227
 30
0.0
 11
-48.57499993715073
 21
57.59999990464229
 31
0.0
  0
LINE
  5
122
330
4E
100
AcDbEntity
  8
0
  6
Continuous
 62
     7
100
AcDbLine
 10
-52.82499993715072
 20
57.5999999046423
 30
0.0
 11
-52.32499993715072
 21
57.59999990464229
 31
0.0
  0
LINE
  5
123
330
4E
100
AcDbEntity
  8
0
  6
Continuous
 62
     7
100
AcDbLine
 10
-52.32499993715072
 20
57.59999990464229
 30
0.0
 11
-49.07499993715073
 21
57.59999990464227
 31
0.0
  0
LINE
  5
124
330
4E
100
AcDbEntity
  8
0
  6
Continuous
 62
     7
100
AcDbLine
 10
-52.82499993715072
 20
58.1999999046423
 30
0.0
 11
-52.82499993715071
 21
62.7499999046423
 31
0.0
  0
LINE
  5
125
330
4E
100
AcDbEntity
  8
0
  6
Continuous
 62
     7
100
AcDbLine
 10
-48.57499993715073
 20
57.59999990464229
 30
0.0
 11
-48.57499993715074
 21
53.04999990464229
 31
0.0
  0
ENDBLK
  5
50
330
4E
100
AcDbEntity
  8
0
100
AcDbBlockEnd
  0
BLOCK
  5
53
330
51
100
AcDbEntity
  8
0
100
AcDbBlockBegin
  2
Drfsicht1
 70
     0
 10
-50.69999993443497
 20
50.17500009536217
 30
0.0
  3
Drfsicht1
  1

  0
INSERT
  5
52
330
51
100
AcDbEntity
  8
0
100
AcDbBlockReference
  2
3030941_WST_2_5-select__2
 10
-52.82499993715079
 20
37.59999990464227
 30
0.0
  0
MTEXT
  5
126
330
51
100
AcDbEntity
  8
1
 62
     6
100
AcDbMText
 10
-50.69999993443491
 20
35.10000028609704
 30
0.0
 40
2.5
 41
0.0
 71
     2
 72
     1
  1
 
  7
CONVERTER_11
 73
     1
 44
1.32052821128451
  0
DIMENSION
  5
133
330
51
100
AcDbEntity
  8
1
100
AcDbDimension
  2
*D16
 10
-40.8454310817308
 20
58.19999990464229
 30
0.0
 11
-42.8079310817308
 21
67.917256246807
 31
0.0
 70
    33
  1
<>
 71
     5
 42
-1.0
 53
89.99999999999982
  3
ME10_DIM_10
100
AcDbAlignedDimension
 13
-48.57499993715071
 23
62.74999990464228
 33
0.0
 14
-48.57499993715072
 24
58.19999990464229
 34
0.0
  0
DIMENSION
  5
13E
330
51
100
AcDbEntity
  8
1
100
AcDbDimension
  2
*D17
 10
-36.29156726820955
 20
62.74999990464228
 30
0.0
 11
-38.25406726820955
 21
49.55536103463545
 31
0.0
 70
    32
  1
<>
 71
     5
 42
-1.0
 53
90.0
  3
ME10_DIM_11
100
AcDbAlignedDimension
 13
-48.57499993715079
 23
37.59999990464227
 33
0.0
 14
-48.57499993715071
 24
62.74999990464228
 34
0.0
 50
90.0
100
AcDbRotatedDimension
  0
DIMENSION
  5
14B
330
51
100
AcDbEntity
  8
1
100
AcDbDimension
  2
*D18
 10
-48.57499993715071
 20
67.7499999046423
 30
0.0
 11
-57.869695712444
 21
69.7124999046423
 31
0.0
 70
    32
  1
<>
 71
     5
 42
-1.0
 53
0.00013888888889
  3
ME10_DIM_12
100
AcDbAlignedDimension
 13
-52.82499993715071
 23
62.7499999046423
 33
0.0
 14
-48.57499993715071
 24
62.74999990464228
 34
0.0
100
AcDbRotatedDimension
  0
ENDBLK
  5
54
330
51
100
AcDbEntity
  8
0
100
AcDbBlockEnd
  0
BLOCK
  5
56
330
55
100
AcDbEntity
  8
0
100
AcDbBlockBegin
  2
3030941_WST_2_5-select__3
 70
     0
 10
0.07499993715079
 20
77.74999998333988
 30
0.0
  3
3030941_WST_2_5-select__3
  1

  0
LINE
  5
14C
330
55
100
AcDbEntity
  8
0
  6
Continuous
 62
     7
100
AcDbLine
 10
3.17060975513877
 20
77.74999998334027
 30
0.0
 11
2.19999982228887
 21
77.74999998334037
 31
0.0
  0
LINE
  5
14D
330
55
100
AcDbEntity
  8
0
  6
Continuous
 62
     7
100
AcDbLine
 10
3.87771653632532
 20
77.74999998333988
 30
0.0
 11
3.17060975513877
 21
77.74999998334027
 31
0.0
  0
LINE
  5
14E
330
55
100
AcDbEntity
  8
0
  6
Continuous
 62
     7
100
AcDbLine
 10
4.2859648267893
 20
78.74999998333982
 30
0.0
 11
3.87771653632532
 21
77.74999998333988
 31
0.0
  0
LINE
  5
14F
330
55
100
AcDbEntity
  8
0
  6
Continuous
 62
     7
100
AcDbLine
 10
2.19999982228887
 20
77.74999998334037
 30
0.0
 11
1.22938988943896
 21
77.74999998334025
 31
0.0
  0
LINE
  5
150
330
55
100
AcDbEntity
  8
0
  6
Continuous
 62
     7
100
AcDbLine
 10
0.11403481778895
 20
81.24999998334121
 30
0.0
 11
0.8211415989755
 21
81.24999998334123
 31
0.0
  0
LINE
  5
151
330
55
100
AcDbEntity
  8
0
  6
Continuous
 62
     7
100
AcDbLine
 10
2.19999982228927
 20
81.2499999833417
 30
0.0
 11
3.57885804560303
 21
81.24999998334161
 31
0.0
  0
LINE
  5
152
330
55
100
AcDbEntity
  8
0
  6
Continuous
 62
     7
100
AcDbLine
 10
0.8211415989755
 20
81.24999998334123
 30
0.0
 11
2.19999982228927
 21
81.2499999833417
 31
0.0
  0
LINE
  5
153
330
55
100
AcDbEntity
  8
0
  6
Continuous
 62
     7
100
AcDbLine
 10
0.07499993715079
 20
81.24999998334135
 30
0.0
 11
0.07499993715079
 21
82.24999998334135
 31
0.0
  0
LINE
  5
154
330
55
100
AcDbEntity
  8
0
  6
Continuous
 62
     7
100
AcDbLine
 10
4.32499993715079
 20
82.24999998334135
 30
0.0
 11
0.07499993715079
 21
82.24999998334135
 31
0.0
  0
LINE
  5
155
330
55
100
AcDbEntity
  8
0
  6
Continuous
 62
     7
100
AcDbLine
 10
2.19999982228927
 20
81.2499999833417
 30
0.0
 11
2.19999982228887
 21
77.74999998334037
 31
0.0
  0
LINE
  5
156
330
55
100
AcDbEntity
  8
0
  6
Continuous
 62
     7
100
AcDbLine
 10
1.22938988943896
 20
77.74999998334025
 30
0.0
 11
0.52228310825241
 21
77.74999998334052
 31
0.0
  0
LINE
  5
157
330
55
100
AcDbEntity
  8
0
  6
Continuous
 62
     7
100
AcDbLine
 10
0.82114159897521
 20
78.74999998334006
 30
0.0
 11
0.8211415989755
 21
81.24999998334123
 31
0.0
  0
LINE
  5
158
330
55
100
AcDbEntity
  8
0
  6
Continuous
 62
     7
100
AcDbLine
 10
1.22938988943896
 20
77.74999998334025
 30
0.0
 11
0.82114159897521
 21
78.74999998334006
 31
0.0
  0
LINE
  5
159
330
55
100
AcDbEntity
  8
0
  6
Continuous
 62
     7
100
AcDbLine
 10
3.57885804560303
 20
81.24999998334161
 30
0.0
 11
4.28596482678958
 21
81.2499999833414
 31
0.0
  0
LINE
  5
15A
330
55
100
AcDbEntity
  8
0
  6
Continuous
 62
     7
100
AcDbLine
 10
3.57885804560303
 20
81.24999998334161
 30
0.0
 11
3.57885804560275
 21
78.74999998334025
 31
0.0
  0
LINE
  5
15B
330
55
100
AcDbEntity
  8
0
  6
Continuous
 62
     7
100
AcDbLine
 10
4.32499993715079
 20
82.24999998334135
 30
0.0
 11
4.32499993715079
 21
81.24999998334135
 31
0.0
  0
LINE
  5
15C
330
55
100
AcDbEntity
  8
0
  6
Continuous
 62
     7
100
AcDbLine
 10
4.28596482678958
 20
81.2499999833414
 30
0.0
 11
4.32499993715079
 21
81.24999998334135
 31
0.0
  0
LINE
  5
15D
330
55
100
AcDbEntity
  8
0
  6
Continuous
 62
     7
100
AcDbLine
 10
4.28596482678958
 20
81.2499999833414
 30
0.0
 11
4.2859648267893
 21
78.74999998333982
 31
0.0
  0
LINE
  5
15E
330
55
100
AcDbEntity
  8
0
  6
Continuous
 62
     7
100
AcDbLine
 10
0.11403481778895
 20
81.24999998334121
 30
0.0
 11
0.11403481778866
 21
78.74999998334012
 31
0.0
  0
LINE
  5
15F
330
55
100
AcDbEntity
  8
0
  6
Continuous
 62
     7
100
AcDbLine
 10
0.52228310825241
 20
77.74999998334052
 30
0.0
 11
0.11403481778866
 21
78.74999998334012
 31
0.0
  0
LINE
  5
160
330
55
100
AcDbEntity
  8
0
  6
Continuous
 62
     7
100
AcDbLine
 10
0.82114159897521
 20
78.74999998334006
 30
0.0
 11
0.11403481778866
 21
78.74999998334012
 31
0.0
  0
LINE
  5
161
330
55
100
AcDbEntity
  8
0
  6
Continuous
 62
     7
100
AcDbLine
 10
4.2859648267893
 20
78.74999998333982
 30
0.0
 11
3.57885804560275
 21
78.74999998334025
 31
0.0
  0
LINE
  5
162
330
55
100
AcDbEntity
  8
0
  6
Continuous
 62
     7
100
AcDbLine
 10
0.07499993715079
 20
81.24999998334135
 30
0.0
 11
0.11403481778895
 21
81.24999998334121
 31
0.0
  0
LINE
  5
163
330
55
100
AcDbEntity
  8
0
  6
Continuous
 62
     7
100
AcDbLine
 10
3.57885804560275
 20
78.74999998334025
 30
0.0
 11
3.17060975513877
 21
77.74999998334027
 31
0.0
  0
ENDBLK
  5
57
330
55
100
AcDbEntity
  8
0
100
AcDbBlockEnd
  0
BLOCK
  5
5A
330
58
100
AcDbEntity
  8
0
100
AcDbBlockBegin
  2
Rckans1
 70
     0
 10
2.19999993443493
 20
79.99999999999494
 30
0.0
  3
Rckans1
  1

  0
INSERT
  5
59
330
58
100
AcDbEntity
  8
0
100
AcDbBlockReference
  2
3030941_WST_2_5-select__3
 10
0.07499993715079
 20
77.74999998333988
 30
0.0
  0
MTEXT
  5
164
330
58
100
AcDbEntity
  8
1
 62
     6
100
AcDbMText
 10
2.19999993443486
 20
75.24999999999466
 30
0.0
 40
2.5
 41
0.0
 71
     2
 72
     1
  1
 
  7
CONVERTER_11
 73
     1
 44
1.32052821128451
  0
ENDBLK
  5
5B
330
58
100
AcDbEntity
  8
0
100
AcDbBlockEnd
  0
BLOCK
  5
5D
330
5C
100
AcDbEntity
  8
0
100
AcDbBlockBegin
  2
3030941_WST_2_5-select__4
 70
     0
 10
-35.57499980928765
 20
77.74999998334214
 30
0.0
  3
3030941_WST_2_5-select__4
  1

  0
LINE
  5
165
330
5C
100
AcDbEntity
  8
0
  6
Continuous
 62
     7
100
AcDbLine
 10
-33.29999980928765
 20
81.2499999833442
 30
0.0
 11
-33.29999980928774
 21
77.74999998334278
 31
0.0
  0
LINE
  5
166
330
5C
100
AcDbEntity
  8
0
  6
Continuous
 62
     7
100
AcDbLine
 10
-22.99999980928774
 20
77.74999998334252
 30
0.0
 11
-22.99999980928766
 21
81.24999998334394
 31
0.0
  0
LINE
  5
167
330
5C
100
AcDbEntity
  8
0
  6
Continuous
 62
     7
100
AcDbLine
 10
-31.21403480478739
 20
78.74999998334296
 30
0.0
 11
-31.62228309525128
 21
77.74999998334292
 31
0.0
  0
LINE
  5
168
330
5C
100
AcDbEntity
  8
0
  6
Continuous
 62
     7
100
AcDbLine
 10
-31.02499980928766
 20
81.24999998334414
 30
0.0
 11
-31.02499980928765
 21
81.44999998334414
 31
0.0
  0
LINE
  5
169
330
5C
100
AcDbEntity
  8
0
  6
Continuous
 62
     7
100
AcDbLine
 10
-35.57499980928765
 20
81.24999998334424
 30
0.0
 11
-35.38596481378797
 21
81.24999998334424
 31
0.0
  0
LINE
  5
16A
330
5C
100
AcDbEntity
  8
0
  6
Continuous
 62
     7
100
AcDbLine
 10
-31.02499980928765
 20
81.44999998334414
 30
0.0
 11
-31.02499980928764
 21
82.04999998334412
 31
0.0
  0
LINE
  5
16B
330
5C
100
AcDbEntity
  8
0
  6
Continuous
 62
     7
100
AcDbLine
 10
-31.02499980928764
 20
82.04999998334412
 30
0.0
 11
-31.02499980928763
 21
82.24999998334414
 31
0.0
  0
LINE
  5
16C
330
5C
100
AcDbEntity
  8
0
  6
Continuous
 62
     7
100
AcDbLine
 10
-25.87499980928765
 20
81.44999998334401
 30
0.0
 11
-25.87499980928763
 21
82.04999998334401
 31
0.0
  0
LINE
  5
16D
330
5C
100
AcDbEntity
  8
0
  6
Continuous
 62
     7
100
AcDbLine
 10
-14.97499980928762
 20
82.24999998334374
 30
0.0
 11
-14.97499980928762
 21
82.04999998334375
 31
0.0
  0
LINE
  5
16E
330
5C
100
AcDbEntity
  8
0
  6
Continuous
 62
     7
100
AcDbLine
 10
-14.97499980928762
 20
82.04999998334375
 30
0.0
 11
-15.57499980928763
 21
82.04999998334375
 31
0.0
  0
LINE
  5
16F
330
5C
100
AcDbEntity
  8
0
  6
Continuous
 62
     7
100
AcDbLine
 10
-20.12499980928763
 20
82.24999998334386
 30
0.0
 11
-20.12499980928763
 21
82.04999998334387
 31
0.0
  0
LINE
  5
170
330
5C
100
AcDbEntity
  8
0
  6
Continuous
 62
     7
100
AcDbLine
 10
-25.87499980928763
 20
82.04999998334401
 30
0.0
 11
-25.87499980928763
 21
82.249999983344
 31
0.0
  0
LINE
  5
171
330
5C
100
AcDbEntity
  8
0
  6
Continuous
 62
     7
100
AcDbLine
 10
-30.42499980928763
 20
82.24999998334413
 30
0.0
 11
-30.42499980928762
 21
82.04999998334412
 31
0.0
  0
LINE
  5
172
330
5C
100
AcDbEntity
  8
0
  6
Continuous
 62
     7
100
AcDbLine
 10
-20.72499980928763
 20
82.24999998334388
 30
0.0
 11
-25.27499980928763
 21
82.249999983344
 31
0.0
  0
LINE
  5
173
330
5C
100
AcDbEntity
  8
0
  6
Continuous
 62
     7
100
AcDbLine
 10
-25.27499980928762
 20
82.04999998334401
 30
0.0
 11
-25.87499980928763
 21
82.04999998334401
 31
0.0
  0
LINE
  5
174
330
5C
100
AcDbEntity
  8
0
  6
Continuous
 62
     7
100
AcDbLine
 10
-30.42499980928762
 20
82.04999998334412
 30
0.0
 11
-31.02499980928764
 21
82.04999998334412
 31
0.0
  0
LINE
  5
175
330
5C
100
AcDbEntity
  8
0
  6
Continuous
 62
     7
100
AcDbLine
 10
-20.12499980928763
 20
82.04999998334387
 30
0.0
 11
-20.72499980928764
 21
82.04999998334388
 31
0.0
  0
LINE
  5
176
330
5C
100
AcDbEntity
  8
0
  6
Continuous
 62
     7
100
AcDbLine
 10
-15.57499980928763
 20
82.24999998334376
 30
0.0
 11
-20.12499980928763
 21
82.24999998334386
 31
0.0
  0
LINE
  5
177
330
5C
100
AcDbEntity
  8
0
  6
Continuous
 62
     7
100
AcDbLine
 10
-25.87499980928763
 20
82.249999983344
 30
0.0
 11
-30.42499980928763
 21
82.24999998334413
 31
0.0
  0
LINE
  5
178
330
5C
100
AcDbEntity
  8
0
  6
Continuous
 62
     7
100
AcDbLine
 10
-30.42499980928762
 20
82.04999998334412
 30
0.0
 11
-30.42499980928763
 21
81.44999998334411
 31
0.0
  0
LINE
  5
179
330
5C
100
AcDbEntity
  8
0
  6
Continuous
 62
     7
100
AcDbLine
 10
-31.02499980928763
 20
82.24999998334414
 30
0.0
 11
-35.57499980928763
 21
82.24999998334424
 31
0.0
  0
LINE
  5
17A
330
5C
100
AcDbEntity
  8
0
  6
Continuous
 62
     7
100
AcDbLine
 10
-14.97499980928763
 20
81.44999998334373
 30
0.0
 11
-14.97499980928765
 21
81.24999998334374
 31
0.0
  0
LINE
  5
17B
330
5C
100
AcDbEntity
  8
0
  6
Continuous
 62
     7
100
AcDbLine
 10
-25.87499980928766
 20
81.249999983344
 30
0.0
 11
-25.87499980928765
 21
81.44999998334401
 31
0.0
  0
LINE
  5
17C
330
5C
100
AcDbEntity
  8
0
  6
Continuous
 62
     7
100
AcDbLine
 10
-20.12499980928763
 20
81.44999998334384
 30
0.0
 11
-20.12499980928765
 21
81.24999998334386
 31
0.0
  0
LINE
  5
17D
330
5C
100
AcDbEntity
  8
0
  6
Continuous
 62
     7
100
AcDbLine
 10
-30.42499980928763
 20
81.44999998334411
 30
0.0
 11
-30.42499980928766
 21
81.24999998334413
 31
0.0
  0
LINE
  5
17E
330
5C
100
AcDbEntity
  8
0
  6
Continuous
 62
     7
100
AcDbLine
 10
-25.27499980928766
 20
81.249999983344
 30
0.0
 11
-25.08596481378796
 21
81.249999983344
 31
0.0
  0
LINE
  5
17F
330
5C
100
AcDbEntity
  8
0
  6
Continuous
 62
     7
100
AcDbLine
 10
-25.08596481378796
 20
81.249999983344
 30
0.0
 11
-24.37885803260143
 21
81.24999998334397
 31
0.0
  0
LINE
  5
180
330
5C
100
AcDbEntity
  8
0
  6
Continuous
 62
     7
100
AcDbLine
 10
-24.37885803260143
 20
81.24999998334397
 30
0.0
 11
-22.99999980928766
 21
81.24999998334394
 31
0.0
  0
LINE
  5
181
330
5C
100
AcDbEntity
  8
0
  6
Continuous
 62
     7
100
AcDbLine
 10
-25.87499980928765
 20
81.44999998334401
 30
0.0
 11
-25.27499980928763
 21
81.44999998334399
 31
0.0
  0
LINE
  5
182
330
5C
100
AcDbEntity
  8
0
  6
Continuous
 62
     7
100
AcDbLine
 10
-31.02499980928765
 20
81.44999998334414
 30
0.0
 11
-30.42499980928763
 21
81.44999998334411
 31
0.0
  0
LINE
  5
183
330
5C
100
AcDbEntity
  8
0
  6
Continuous
 62
     7
100
AcDbLine
 10
-20.72499980928765
 20
81.44999998334389
 30
0.0
 11
-20.12499980928763
 21
81.44999998334384
 31
0.0
  0
LINE
  5
184
330
5C
100
AcDbEntity
  8
0
  6
Continuous
 62
     7
100
AcDbLine
 10
-15.76403480478734
 20
81.24999998334376
 30
0.0
 11
-15.57499980928765
 21
81.24999998334376
 31
0.0
  0
LINE
  5
185
330
5C
100
AcDbEntity
  8
0
  6
Continuous
 62
     7
100
AcDbLine
 10
-15.57499980928764
 20
81.44999998334376
 30
0.0
 11
-14.97499980928763
 21
81.44999998334373
 31
0.0
  0
LINE
  5
186
330
5C
100
AcDbEntity
  8
0
  6
Continuous
 62
     7
100
AcDbLine
 10
-35.57499980928763
 20
82.24999998334424
 30
0.0
 11
-35.57499980928765
 21
81.24999998334424
 31
0.0
  0
LINE
  5
187
330
5C
100
AcDbEntity
  8
0
  6
Continuous
 62
     7
100
AcDbLine
 10
-10.42499980928765
 20
81.24999998334363
 30
0.0
 11
-10.42499980928762
 21
82.24999998334363
 31
0.0
  0
LINE
  5
188
330
5C
100
AcDbEntity
  8
0
  6
Continuous
 62
     7
100
AcDbLine
 10
-10.61403480478729
 20
81.24999998334363
 30
0.0
 11
-10.42499980928765
 21
81.24999998334363
 31
0.0
  0
LINE
  5
189
330
5C
100
AcDbEntity
  8
0
  6
Continuous
 62
     7
100
AcDbLine
 10
-11.32114158597388
 20
81.24999998334366
 30
0.0
 11
-10.61403480478729
 21
81.24999998334363
 31
0.0
  0
LINE
  5
18A
330
5C
100
AcDbEntity
  8
0
  6
Continuous
 62
     7
100
AcDbLine
 10
-14.97499980928762
 20
82.04999998334375
 30
0.0
 11
-14.97499980928763
 21
81.44999998334373
 31
0.0
  0
LINE
  5
18B
330
5C
100
AcDbEntity
  8
0
  6
Continuous
 62
     7
100
AcDbLine
 10
-17.84999980928766
 20
81.24999998334381
 30
0.0
 11
-16.47114158597389
 21
81.24999998334378
 31
0.0
  0
LINE
  5
18C
330
5C
100
AcDbEntity
  8
0
  6
Continuous
 62
     7
100
AcDbLine
 10
-19.93596481378797
 20
81.24999998334386
 30
0.0
 11
-19.22885803260143
 21
81.24999998334384
 31
0.0
  0
LINE
  5
18D
330
5C
100
AcDbEntity
  8
0
  6
Continuous
 62
     7
100
AcDbLine
 10
-16.47114158597389
 20
81.24999998334378
 30
0.0
 11
-15.76403480478734
 21
81.24999998334376
 31
0.0
  0
LINE
  5
18E
330
5C
100
AcDbEntity
  8
0
  6
Continuous
 62
     7
100
AcDbLine
 10
-15.57499980928763
 20
82.04999998334375
 30
0.0
 11
-15.57499980928763
 21
82.24999998334376
 31
0.0
  0
LINE
  5
18F
330
5C
100
AcDbEntity
  8
0
  6
Continuous
 62
     7
100
AcDbLine
 10
-15.57499980928764
 20
81.44999998334376
 30
0.0
 11
-15.57499980928763
 21
82.04999998334375
 31
0.0
  0
LINE
  5
190
330
5C
100
AcDbEntity
  8
0
  6
Continuous
 62
     7
100
AcDbLine
 10
-15.57499980928765
 20
81.24999998334376
 30
0.0
 11
-15.57499980928764
 21
81.44999998334376
 31
0.0
  0
LINE
  5
191
330
5C
100
AcDbEntity
  8
0
  6
Continuous
 62
     7
100
AcDbLine
 10
-20.72499980928766
 20
81.24999998334388
 30
0.0
 11
-20.72499980928765
 21
81.44999998334389
 31
0.0
  0
LINE
  5
192
330
5C
100
AcDbEntity
  8
0
  6
Continuous
 62
     7
100
AcDbLine
 10
-20.72499980928764
 20
82.04999998334388
 30
0.0
 11
-20.72499980928763
 21
82.24999998334388
 31
0.0
  0
LINE
  5
193
330
5C
100
AcDbEntity
  8
0
  6
Continuous
 62
     7
100
AcDbLine
 10
-20.91403480478733
 20
81.24999998334388
 30
0.0
 11
-20.72499980928766
 21
81.24999998334388
 31
0.0
  0
LINE
  5
194
330
5C
100
AcDbEntity
  8
0
  6
Continuous
 62
     7
100
AcDbLine
 10
-21.62114158597388
 20
81.2499999833439
 30
0.0
 11
-20.91403480478733
 21
81.24999998334388
 31
0.0
  0
LINE
  5
195
330
5C
100
AcDbEntity
  8
0
  6
Continuous
 62
     7
100
AcDbLine
 10
-22.99999980928766
 20
81.24999998334394
 30
0.0
 11
-21.62114158597388
 21
81.2499999833439
 31
0.0
  0
LINE
  5
196
330
5C
100
AcDbEntity
  8
0
  6
Continuous
 62
     7
100
AcDbLine
 10
-20.72499980928765
 20
81.44999998334389
 30
0.0
 11
-20.72499980928764
 21
82.04999998334388
 31
0.0
  0
LINE
  5
197
330
5C
100
AcDbEntity
  8
0
  6
Continuous
 62
     7
100
AcDbLine
 10
-20.12499980928763
 20
82.04999998334387
 30
0.0
 11
-20.12499980928763
 21
81.44999998334384
 31
0.0
  0
LINE
  5
198
330
5C
100
AcDbEntity
  8
0
  6
Continuous
 62
     7
100
AcDbLine
 10
-19.22885803260143
 20
81.24999998334384
 30
0.0
 11
-17.84999980928766
 21
81.24999998334381
 31
0.0
  0
LINE
  5
199
330
5C
100
AcDbEntity
  8
0
  6
Continuous
 62
     7
100
AcDbLine
 10
-10.42499980928762
 20
82.24999998334363
 30
0.0
 11
-14.97499980928762
 21
82.24999998334374
 31
0.0
  0
LINE
  5
19A
330
5C
100
AcDbEntity
  8
0
  6
Continuous
 62
     7
100
AcDbLine
 10
-35.38596481378803
 20
78.74999998334275
 30
0.0
 11
-34.97771652332419
 21
77.74999998334278
 31
0.0
  0
LINE
  5
19B
330
5C
100
AcDbEntity
  8
0
  6
Continuous
 62
     7
100
AcDbLine
 10
-32.32938987643783
 20
77.74999998334263
 30
0.0
 11
-33.29999980928774
 21
77.74999998334278
 31
0.0
  0
LINE
  5
19C
330
5C
100
AcDbEntity
  8
0
  6
Continuous
 62
     7
100
AcDbLine
 10
-33.29999980928774
 20
77.74999998334278
 30
0.0
 11
-34.27060974213764
 21
77.74999998334268
 31
0.0
  0
LINE
  5
19D
330
5C
100
AcDbEntity
  8
0
  6
Continuous
 62
     7
100
AcDbLine
 10
-31.92114158597394
 20
78.74999998334258
 30
0.0
 11
-32.32938987643783
 21
77.74999998334263
 31
0.0
  0
LINE
  5
19E
330
5C
100
AcDbEntity
  8
0
  6
Continuous
 62
     7
100
AcDbLine
 10
-34.27060974213764
 20
77.74999998334268
 30
0.0
 11
-34.97771652332419
 21
77.74999998334278
 31
0.0
  0
LINE
  5
19F
330
5C
100
AcDbEntity
  8
0
  6
Continuous
 62
     7
100
AcDbLine
 10
-28.14999980928774
 20
77.74999998334263
 30
0.0
 11
-29.12060974213765
 21
77.74999998334255
 31
0.0
  0
LINE
  5
1A0
330
5C
100
AcDbEntity
  8
0
  6
Continuous
 62
     7
100
AcDbLine
 10
-34.27060974213764
 20
77.74999998334268
 30
0.0
 11
-34.67885803260148
 21
78.74999998334263
 31
0.0
  0
LINE
  5
1A1
330
5C
100
AcDbEntity
  8
0
  6
Continuous
 62
     7
100
AcDbLine
 10
-27.17938987643783
 20
77.7499999833425
 30
0.0
 11
-28.14999980928774
 21
77.74999998334263
 31
0.0
  0
LINE
  5
1A2
330
5C
100
AcDbEntity
  8
0
  6
Continuous
 62
     7
100
AcDbLine
 10
-26.47228309525128
 20
77.7499999833428
 30
0.0
 11
-27.17938987643783
 21
77.7499999833425
 31
0.0
  0
LINE
  5
1A3
330
5C
100
AcDbEntity
  8
0
  6
Continuous
 62
     7
100
AcDbLine
 10
-34.67885803260148
 20
78.74999998334263
 30
0.0
 11
-35.38596481378803
 21
78.74999998334275
 31
0.0
  0
LINE
  5
1A4
330
5C
100
AcDbEntity
  8
0
  6
Continuous
 62
     7
100
AcDbLine
 10
-31.62228309525128
 20
77.74999998334292
 30
0.0
 11
-32.32938987643783
 21
77.74999998334263
 31
0.0
  0
LINE
  5
1A5
330
5C
100
AcDbEntity
  8
0
  6
Continuous
 62
     7
100
AcDbLine
 10
-22.99999980928774
 20
77.74999998334252
 30
0.0
 11
-23.97060974213764
 21
77.74999998334243
 31
0.0
  0
LINE
  5
1A6
330
5C
100
AcDbEntity
  8
0
  6
Continuous
 62
     7
100
AcDbLine
 10
-23.97060974213764
 20
77.74999998334243
 30
0.0
 11
-24.37885803260149
 21
78.74999998334239
 31
0.0
  0
LINE
  5
1A7
330
5C
100
AcDbEntity
  8
0
  6
Continuous
 62
     7
100
AcDbLine
 10
-27.17938987643783
 20
77.7499999833425
 30
0.0
 11
-26.77114158597395
 21
78.74999998334245
 31
0.0
  0
LINE
  5
1A8
330
5C
100
AcDbEntity
  8
0
  6
Continuous
 62
     7
100
AcDbLine
 10
-29.12060974213765
 20
77.74999998334255
 30
0.0
 11
-29.52885803260148
 21
78.74999998334252
 31
0.0
  0
LINE
  5
1A9
330
5C
100
AcDbEntity
  8
0
  6
Continuous
 62
     7
100
AcDbLine
 10
-29.12060974213765
 20
77.74999998334255
 30
0.0
 11
-29.82771652332419
 21
77.74999998334265
 31
0.0
  0
LINE
  5
1AA
330
5C
100
AcDbEntity
  8
0
  6
Continuous
 62
     7
100
AcDbLine
 10
-30.23596481378803
 20
78.7499999833426
 30
0.0
 11
-29.82771652332419
 21
77.74999998334265
 31
0.0
  0
LINE
  5
1AB
330
5C
100
AcDbEntity
  8
0
  6
Continuous
 62
     7
100
AcDbLine
 10
-23.97060974213764
 20
77.74999998334243
 30
0.0
 11
-24.67771652332419
 21
77.74999998334275
 31
0.0
  0
LINE
  5
1AC
330
5C
100
AcDbEntity
  8
0
  6
Continuous
 62
     7
100
AcDbLine
 10
-24.67771652332419
 20
77.74999998334275
 30
0.0
 11
-25.08596481378803
 21
78.7499999833428
 31
0.0
  0
LINE
  5
1AD
330
5C
100
AcDbEntity
  8
0
  6
Continuous
 62
     7
100
AcDbLine
 10
-24.37885803260149
 20
78.74999998334239
 30
0.0
 11
-25.08596481378803
 21
78.7499999833428
 31
0.0
  0
LINE
  5
1AE
330
5C
100
AcDbEntity
  8
0
  6
Continuous
 62
     7
100
AcDbLine
 10
-21.62114158597395
 20
78.74999998334232
 30
0.0
 11
-22.02938987643784
 21
77.74999998334238
 31
0.0
  0
LINE
  5
1AF
330
5C
100
AcDbEntity
  8
0
  6
Continuous
 62
     7
100
AcDbLine
 10
-26.06403480478739
 20
78.74999998334283
 30
0.0
 11
-26.47228309525128
 21
77.7499999833428
 31
0.0
  0
LINE
  5
1B0
330
5C
100
AcDbEntity
  8
0
  6
Continuous
 62
     7
100
AcDbLine
 10
-14.78596481378797
 20
81.24999998334373
 30
0.0
 11
-14.78596481378803
 21
78.74999998334224
 31
0.0
  0
LINE
  5
1B1
330
5C
100
AcDbEntity
  8
0
  6
Continuous
 62
     7
100
AcDbLine
 10
-14.07885803260148
 20
78.74999998334214
 30
0.0
 11
-14.07885803260142
 21
81.24999998334371
 31
0.0
  0
LINE
  5
1B2
330
5C
100
AcDbEntity
  8
0
  6
Continuous
 62
     7
100
AcDbLine
 10
-12.69999980928774
 20
77.74999998334226
 30
0.0
 11
-12.69999980928765
 21
81.24999998334368
 31
0.0
  0
LINE
  5
1B3
330
5C
100
AcDbEntity
  8
0
  6
Continuous
 62
     7
100
AcDbLine
 10
-14.97499980928765
 20
81.24999998334374
 30
0.0
 11
-14.78596481378797
 21
81.24999998334373
 31
0.0
  0
LINE
  5
1B4
330
5C
100
AcDbEntity
  8
0
  6
Continuous
 62
     7
100
AcDbLine
 10
-14.78596481378797
 20
81.24999998334373
 30
0.0
 11
-14.07885803260142
 21
81.24999998334371
 31
0.0
  0
LINE
  5
1B5
330
5C
100
AcDbEntity
  8
0
  6
Continuous
 62
     7
100
AcDbLine
 10
-12.69999980928765
 20
81.24999998334368
 30
0.0
 11
-11.32114158597388
 21
81.24999998334366
 31
0.0
  0
LINE
  5
1B6
330
5C
100
AcDbEntity
  8
0
  6
Continuous
 62
     7
100
AcDbLine
 10
-14.07885803260142
 20
81.24999998334371
 30
0.0
 11
-12.69999980928765
 21
81.24999998334368
 31
0.0
  0
LINE
  5
1B7
330
5C
100
AcDbEntity
  8
0
  6
Continuous
 62
     7
100
AcDbLine
 10
-11.32114158597388
 20
81.24999998334366
 30
0.0
 11
-11.32114158597394
 21
78.74999998334206
 31
0.0
  0
LINE
  5
1B8
330
5C
100
AcDbEntity
  8
0
  6
Continuous
 62
     7
100
AcDbLine
 10
-10.61403480478739
 20
78.74999998334245
 30
0.0
 11
-10.61403480478729
 21
81.24999998334363
 31
0.0
  0
LINE
  5
1B9
330
5C
100
AcDbEntity
  8
0
  6
Continuous
 62
     7
100
AcDbLine
 10
-16.87938987643783
 20
77.74999998334226
 30
0.0
 11
-17.84999980928774
 21
77.74999998334239
 31
0.0
  0
LINE
  5
1BA
330
5C
100
AcDbEntity
  8
0
  6
Continuous
 62
     7
100
AcDbLine
 10
-15.7640348047874
 20
78.74999998334226
 30
0.0
 11
-16.47114158597395
 21
78.7499999833422
 31
0.0
  0
LINE
  5
1BB
330
5C
100
AcDbEntity
  8
0
  6
Continuous
 62
     7
100
AcDbLine
 10
-15.7640348047874
 20
78.74999998334226
 30
0.0
 11
-15.76403480478734
 21
81.24999998334376
 31
0.0
  0
LINE
  5
1BC
330
5C
100
AcDbEntity
  8
0
  6
Continuous
 62
     7
100
AcDbLine
 10
-16.47114158597389
 20
81.24999998334378
 30
0.0
 11
-16.47114158597395
 21
78.7499999833422
 31
0.0
  0
LINE
  5
1BD
330
5C
100
AcDbEntity
  8
0
  6
Continuous
 62
     7
100
AcDbLine
 10
-17.84999980928774
 20
77.74999998334239
 30
0.0
 11
-17.84999980928766
 21
81.24999998334381
 31
0.0
  0
LINE
  5
1BE
330
5C
100
AcDbEntity
  8
0
  6
Continuous
 62
     7
100
AcDbLine
 10
-16.47114158597395
 20
78.7499999833422
 30
0.0
 11
-16.87938987643783
 21
77.74999998334226
 31
0.0
  0
LINE
  5
1BF
330
5C
100
AcDbEntity
  8
0
  6
Continuous
 62
     7
100
AcDbLine
 10
-15.7640348047874
 20
78.74999998334226
 30
0.0
 11
-16.17228309525128
 21
77.74999998334255
 31
0.0
  0
LINE
  5
1C0
330
5C
100
AcDbEntity
  8
0
  6
Continuous
 62
     7
100
AcDbLine
 10
-25.27499980928763
 20
81.44999998334399
 30
0.0
 11
-25.27499980928766
 21
81.249999983344
 31
0.0
  0
LINE
  5
1C1
330
5C
100
AcDbEntity
  8
0
  6
Continuous
 62
     7
100
AcDbLine
 10
-25.27499980928763
 20
82.249999983344
 30
0.0
 11
-25.27499980928762
 21
82.04999998334401
 31
0.0
  0
LINE
  5
1C2
330
5C
100
AcDbEntity
  8
0
  6
Continuous
 62
     7
100
AcDbLine
 10
-25.27499980928762
 20
82.04999998334401
 30
0.0
 11
-25.27499980928763
 21
81.44999998334399
 31
0.0
  0
LINE
  5
1C3
330
5C
100
AcDbEntity
  8
0
  6
Continuous
 62
     7
100
AcDbLine
 10
-28.14999980928774
 20
77.74999998334263
 30
0.0
 11
-28.14999980928765
 21
81.24999998334405
 31
0.0
  0
LINE
  5
1C4
330
5C
100
AcDbEntity
  8
0
  6
Continuous
 62
     7
100
AcDbLine
 10
-19.22885803260149
 20
78.74999998334226
 30
0.0
 11
-19.93596481378802
 21
78.74999998334268
 31
0.0
  0
LINE
  5
1C5
330
5C
100
AcDbEntity
  8
0
  6
Continuous
 62
     7
100
AcDbLine
 10
-20.12499980928765
 20
81.24999998334386
 30
0.0
 11
-19.93596481378797
 21
81.24999998334386
 31
0.0
  0
LINE
  5
1C6
330
5C
100
AcDbEntity
  8
0
  6
Continuous
 62
     7
100
AcDbLine
 10
-19.93596481378802
 20
78.74999998334268
 30
0.0
 11
-19.93596481378797
 21
81.24999998334386
 31
0.0
  0
LINE
  5
1C7
330
5C
100
AcDbEntity
  8
0
  6
Continuous
 62
     7
100
AcDbLine
 10
-20.91403480478739
 20
78.74999998334272
 30
0.0
 11
-21.62114158597395
 21
78.74999998334232
 31
0.0
  0
LINE
  5
1C8
330
5C
100
AcDbEntity
  8
0
  6
Continuous
 62
     7
100
AcDbLine
 10
-21.62114158597388
 20
81.2499999833439
 30
0.0
 11
-21.62114158597395
 21
78.74999998334232
 31
0.0
  0
LINE
  5
1C9
330
5C
100
AcDbEntity
  8
0
  6
Continuous
 62
     7
100
AcDbLine
 10
-20.91403480478739
 20
78.74999998334272
 30
0.0
 11
-20.91403480478733
 21
81.24999998334388
 31
0.0
  0
LINE
  5
1CA
330
5C
100
AcDbEntity
  8
0
  6
Continuous
 62
     7
100
AcDbLine
 10
-19.22885803260149
 20
78.74999998334226
 30
0.0
 11
-19.22885803260143
 21
81.24999998334384
 31
0.0
  0
LINE
  5
1CB
330
5C
100
AcDbEntity
  8
0
  6
Continuous
 62
     7
100
AcDbLine
 10
-19.52771652332419
 20
77.74999998334262
 30
0.0
 11
-19.93596481378802
 21
78.74999998334268
 31
0.0
  0
LINE
  5
1CC
330
5C
100
AcDbEntity
  8
0
  6
Continuous
 62
     7
100
AcDbLine
 10
-31.21403480478739
 20
78.74999998334296
 30
0.0
 11
-31.92114158597394
 21
78.74999998334258
 31
0.0
  0
LINE
  5
1CD
330
5C
100
AcDbEntity
  8
0
  6
Continuous
 62
     7
100
AcDbLine
 10
-31.21403480478739
 20
78.74999998334296
 30
0.0
 11
-31.21403480478733
 21
81.24999998334414
 31
0.0
  0
LINE
  5
1CE
330
5C
100
AcDbEntity
  8
0
  6
Continuous
 62
     7
100
AcDbLine
 10
-33.29999980928765
 20
81.2499999833442
 30
0.0
 11
-31.92114158597389
 21
81.24999998334415
 31
0.0
  0
LINE
  5
1CF
330
5C
100
AcDbEntity
  8
0
  6
Continuous
 62
     7
100
AcDbLine
 10
-31.21403480478733
 20
81.24999998334414
 30
0.0
 11
-31.02499980928766
 21
81.24999998334414
 31
0.0
  0
LINE
  5
1D0
330
5C
100
AcDbEntity
  8
0
  6
Continuous
 62
     7
100
AcDbLine
 10
-31.92114158597389
 20
81.24999998334415
 30
0.0
 11
-31.21403480478733
 21
81.24999998334414
 31
0.0
  0
LINE
  5
1D1
330
5C
100
AcDbEntity
  8
0
  6
Continuous
 62
     7
100
AcDbLine
 10
-34.67885803260143
 20
81.24999998334422
 30
0.0
 11
-33.29999980928765
 21
81.2499999833442
 31
0.0
  0
LINE
  5
1D2
330
5C
100
AcDbEntity
  8
0
  6
Continuous
 62
     7
100
AcDbLine
 10
-35.38596481378797
 20
81.24999998334424
 30
0.0
 11
-34.67885803260143
 21
81.24999998334422
 31
0.0
  0
LINE
  5
1D3
330
5C
100
AcDbEntity
  8
0
  6
Continuous
 62
     7
100
AcDbLine
 10
-30.42499980928766
 20
81.24999998334413
 30
0.0
 11
-30.23596481378797
 21
81.24999998334411
 31
0.0
  0
LINE
  5
1D4
330
5C
100
AcDbEntity
  8
0
  6
Continuous
 62
     7
100
AcDbLine
 10
-34.67885803260148
 20
78.74999998334263
 30
0.0
 11
-34.67885803260143
 21
81.24999998334422
 31
0.0
  0
LINE
  5
1D5
330
5C
100
AcDbEntity
  8
0
  6
Continuous
 62
     7
100
AcDbLine
 10
-35.38596481378797
 20
81.24999998334424
 30
0.0
 11
-35.38596481378803
 21
78.74999998334275
 31
0.0
  0
LINE
  5
1D6
330
5C
100
AcDbEntity
  8
0
  6
Continuous
 62
     7
100
AcDbLine
 10
-26.06403480478733
 20
81.24999998334401
 30
0.0
 11
-25.87499980928766
 21
81.249999983344
 31
0.0
  0
LINE
  5
1D7
330
5C
100
AcDbEntity
  8
0
  6
Continuous
 62
     7
100
AcDbLine
 10
-26.77114158597389
 20
81.24999998334403
 30
0.0
 11
-26.06403480478733
 21
81.24999998334401
 31
0.0
  0
LINE
  5
1D8
330
5C
100
AcDbEntity
  8
0
  6
Continuous
 62
     7
100
AcDbLine
 10
-28.14999980928765
 20
81.24999998334405
 30
0.0
 11
-26.77114158597389
 21
81.24999998334403
 31
0.0
  0
LINE
  5
1D9
330
5C
100
AcDbEntity
  8
0
  6
Continuous
 62
     7
100
AcDbLine
 10
-26.77114158597389
 20
81.24999998334403
 30
0.0
 11
-26.77114158597395
 21
78.74999998334245
 31
0.0
  0
LINE
  5
1DA
330
5C
100
AcDbEntity
  8
0
  6
Continuous
 62
     7
100
AcDbLine
 10
-25.08596481378803
 20
78.7499999833428
 30
0.0
 11
-25.08596481378796
 21
81.249999983344
 31
0.0
  0
LINE
  5
1DB
330
5C
100
AcDbEntity
  8
0
  6
Continuous
 62
     7
100
AcDbLine
 10
-29.52885803260148
 20
78.74999998334252
 30
0.0
 11
-29.52885803260143
 21
81.2499999833441
 31
0.0
  0
LINE
  5
1DC
330
5C
100
AcDbEntity
  8
0
  6
Continuous
 62
     7
100
AcDbLine
 10
-30.23596481378797
 20
81.24999998334411
 30
0.0
 11
-29.52885803260143
 21
81.2499999833441
 31
0.0
  0
LINE
  5
1DD
330
5C
100
AcDbEntity
  8
0
  6
Continuous
 62
     7
100
AcDbLine
 10
-26.06403480478739
 20
78.74999998334283
 30
0.0
 11
-26.06403480478733
 21
81.24999998334401
 31
0.0
  0
LINE
  5
1DE
330
5C
100
AcDbEntity
  8
0
  6
Continuous
 62
     7
100
AcDbLine
 10
-26.77114158597395
 20
78.74999998334245
 30
0.0
 11
-26.06403480478739
 21
78.74999998334283
 31
0.0
  0
LINE
  5
1DF
330
5C
100
AcDbEntity
  8
0
  6
Continuous
 62
     7
100
AcDbLine
 10
-30.23596481378797
 20
81.24999998334411
 30
0.0
 11
-30.23596481378803
 21
78.7499999833426
 31
0.0
  0
LINE
  5
1E0
330
5C
100
AcDbEntity
  8
0
  6
Continuous
 62
     7
100
AcDbLine
 10
-29.52885803260148
 20
78.74999998334252
 30
0.0
 11
-30.23596481378803
 21
78.7499999833426
 31
0.0
  0
LINE
  5
1E1
330
5C
100
AcDbEntity
  8
0
  6
Continuous
 62
     7
100
AcDbLine
 10
-24.37885803260149
 20
78.74999998334239
 30
0.0
 11
-24.37885803260143
 21
81.24999998334397
 31
0.0
  0
LINE
  5
1E2
330
5C
100
AcDbEntity
  8
0
  6
Continuous
 62
     7
100
AcDbLine
 10
-29.52885803260143
 20
81.2499999833441
 30
0.0
 11
-28.14999980928765
 21
81.24999998334405
 31
0.0
  0
LINE
  5
1E3
330
5C
100
AcDbEntity
  8
0
  6
Continuous
 62
     7
100
AcDbLine
 10
-31.92114158597389
 20
81.24999998334415
 30
0.0
 11
-31.92114158597394
 21
78.74999998334258
 31
0.0
  0
LINE
  5
1E4
330
5C
100
AcDbEntity
  8
0
  6
Continuous
 62
     7
100
AcDbLine
 10
-12.69999980928774
 20
77.74999998334226
 30
0.0
 11
-13.67060974213763
 21
77.74999998334218
 31
0.0
  0
LINE
  5
1E5
330
5C
100
AcDbEntity
  8
0
  6
Continuous
 62
     7
100
AcDbLine
 10
-13.67060974213763
 20
77.74999998334218
 30
0.0
 11
-14.37771652332418
 21
77.74999998334226
 31
0.0
  0
LINE
  5
1E6
330
5C
100
AcDbEntity
  8
0
  6
Continuous
 62
     7
100
AcDbLine
 10
-13.67060974213763
 20
77.74999998334218
 30
0.0
 11
-14.07885803260148
 21
78.74999998334214
 31
0.0
  0
LINE
  5
1E7
330
5C
100
AcDbEntity
  8
0
  6
Continuous
 62
     7
100
AcDbLine
 10
-14.07885803260148
 20
78.74999998334214
 30
0.0
 11
-14.78596481378803
 21
78.74999998334224
 31
0.0
  0
LINE
  5
1E8
330
5C
100
AcDbEntity
  8
0
  6
Continuous
 62
     7
100
AcDbLine
 10
-11.32114158597394
 20
78.74999998334206
 30
0.0
 11
-11.72938987643783
 21
77.74999998334214
 31
0.0
  0
LINE
  5
1E9
330
5C
100
AcDbEntity
  8
0
  6
Continuous
 62
     7
100
AcDbLine
 10
-11.72938987643783
 20
77.74999998334214
 30
0.0
 11
-12.69999980928774
 21
77.74999998334226
 31
0.0
  0
LINE
  5
1EA
330
5C
100
AcDbEntity
  8
0
  6
Continuous
 62
     7
100
AcDbLine
 10
-10.61403480478739
 20
78.74999998334245
 30
0.0
 11
-11.32114158597394
 21
78.74999998334206
 31
0.0
  0
LINE
  5
1EB
330
5C
100
AcDbEntity
  8
0
  6
Continuous
 62
     7
100
AcDbLine
 10
-16.17228309525128
 20
77.74999998334255
 30
0.0
 11
-16.87938987643783
 21
77.74999998334226
 31
0.0
  0
LINE
  5
1EC
330
5C
100
AcDbEntity
  8
0
  6
Continuous
 62
     7
100
AcDbLine
 10
-11.02228309525126
 20
77.74999998334242
 30
0.0
 11
-11.72938987643783
 21
77.74999998334214
 31
0.0
  0
LINE
  5
1ED
330
5C
100
AcDbEntity
  8
0
  6
Continuous
 62
     7
100
AcDbLine
 10
-18.82060974213764
 20
77.74999998334229
 30
0.0
 11
-19.52771652332419
 21
77.74999998334262
 31
0.0
  0
LINE
  5
1EE
330
5C
100
AcDbEntity
  8
0
  6
Continuous
 62
     7
100
AcDbLine
 10
-17.84999980928774
 20
77.74999998334239
 30
0.0
 11
-18.82060974213764
 21
77.74999998334229
 31
0.0
  0
LINE
  5
1EF
330
5C
100
AcDbEntity
  8
0
  6
Continuous
 62
     7
100
AcDbLine
 10
-22.02938987643784
 20
77.74999998334238
 30
0.0
 11
-22.99999980928774
 21
77.74999998334252
 31
0.0
  0
LINE
  5
1F0
330
5C
100
AcDbEntity
  8
0
  6
Continuous
 62
     7
100
AcDbLine
 10
-21.32228309525127
 20
77.74999998334268
 30
0.0
 11
-22.02938987643784
 21
77.74999998334238
 31
0.0
  0
LINE
  5
1F1
330
5C
100
AcDbEntity
  8
0
  6
Continuous
 62
     7
100
AcDbLine
 10
-18.82060974213764
 20
77.74999998334229
 30
0.0
 11
-19.22885803260149
 21
78.74999998334226
 31
0.0
  0
LINE
  5
1F2
330
5C
100
AcDbEntity
  8
0
  6
Continuous
 62
     7
100
AcDbLine
 10
-20.91403480478739
 20
78.74999998334272
 30
0.0
 11
-21.32228309525127
 21
77.74999998334268
 31
0.0
  0
LINE
  5
1F3
330
5C
100
AcDbEntity
  8
0
  6
Continuous
 62
     7
100
AcDbLine
 10
-10.61403480478739
 20
78.74999998334245
 30
0.0
 11
-11.02228309525126
 21
77.74999998334242
 31
0.0
  0
LINE
  5
1F4
330
5C
100
AcDbEntity
  8
0
  6
Continuous
 62
     7
100
AcDbLine
 10
-14.78596481378803
 20
78.74999998334224
 30
0.0
 11
-14.37771652332418
 21
77.74999998334226
 31
0.0
  0
ENDBLK
  5
5E
330
5C
100
AcDbEntity
  8
0
100
AcDbBlockEnd
  0
BLOCK
  5
61
330
5F
100
AcDbEntity
  8
0
100
AcDbBlockBegin
  2
SA_Links1
 70
     0
 10
-23.0000000000075
 20
79.99999999999744
 30
0.0
  3
SA_Links1
  1

  0
INSERT
  5
60
330
5F
100
AcDbEntity
  8
0
100
AcDbBlockReference
  2
3030941_WST_2_5-select__4
 10
-35.57499980928765
 20
77.74999998334214
 30
0.0
  0
MTEXT
  5
1F5
330
5F
100
AcDbEntity
  8
1
 62
     6
100
AcDbMText
 10
-23.0000000000075
 20
75.24999999999716
 30
0.0
 40
2.5
 41
0.0
 71
     2
 72
     1
  1
 
  7
CONVERTER_11
 73
     1
 44
1.32052821128451
  0
ENDBLK
  5
62
330
5F
100
AcDbEntity
  8
0
100
AcDbBlockEnd
  0
BLOCK
  5
64
330
63
100
AcDbEntity
  8
0
100
AcDbBlockBegin
  2
3030941_WST_2_5-select__5
 70
     0
 10
-87.97500005958973
 20
77.74999998333983
 30
0.0
  3
3030941_WST_2_5-select__5
  1

  0
LINE
  5
1F6
330
63
100
AcDbEntity
  8
0
  6
Continuous
 62
     7
100
AcDbLine
 10
-85.70000005958963
 20
77.74999998333998
 30
0.0
 11
-86.67060999243954
 21
77.74999998334008
 31
0.0
  0
LINE
  5
1F7
330
63
100
AcDbEntity
  8
0
  6
Continuous
 62
     7
100
AcDbLine
 10
-86.67060999243954
 20
77.74999998334008
 30
0.0
 11
-87.07885828290341
 21
78.7499999833401
 31
0.0
  0
LINE
  5
1F8
330
63
100
AcDbEntity
  8
0
  6
Continuous
 62
     7
100
AcDbLine
 10
-86.67060999243954
 20
77.74999998334008
 30
0.0
 11
-87.37771677362608
 21
77.74999998333998
 31
0.0
  0
LINE
  5
1F9
330
63
100
AcDbEntity
  8
0
  6
Continuous
 62
     7
100
AcDbLine
 10
-87.97500005958973
 20
82.24999998334118
 30
0.0
 11
-87.9750000595897
 21
81.24999998334118
 31
0.0
  0
LINE
  5
1FA
330
63
100
AcDbEntity
  8
0
  6
Continuous
 62
     7
100
AcDbLine
 10
-87.78596506408995
 20
78.74999998334
 30
0.0
 11
-87.78596506409005
 21
81.24999998334118
 31
0.0
  0
LINE
  5
1FB
330
63
100
AcDbEntity
  8
0
  6
Continuous
 62
     7
100
AcDbLine
 10
-87.78596506408995
 20
78.74999998334
 30
0.0
 11
-87.37771677362608
 21
77.74999998333998
 31
0.0
  0
LINE
  5
1FC
330
63
100
AcDbEntity
  8
0
  6
Continuous
 62
     7
100
AcDbLine
 10
-84.02228334555316
 20
77.74999998333983
 30
0.0
 11
-84.7293901267397
 21
77.74999998334012
 31
0.0
  0
LINE
  5
1FD
330
63
100
AcDbEntity
  8
0
  6
Continuous
 62
     7
100
AcDbLine
 10
-67.3750000595897
 20
81.44999998334168
 30
0.0
 11
-67.3750000595897
 21
81.24999998334168
 31
0.0
  0
LINE
  5
1FE
330
63
100
AcDbEntity
  8
0
  6
Continuous
 62
     7
100
AcDbLine
 10
-67.37500005958972
 20
82.24999998334168
 30
0.0
 11
-67.37500005958971
 21
82.04999998334169
 31
0.0
  0
LINE
  5
1FF
330
63
100
AcDbEntity
  8
0
  6
Continuous
 62
     7
100
AcDbLine
 10
-62.82500005958973
 20
82.2499999833418
 30
0.0
 11
-67.37500005958972
 21
82.24999998334168
 31
0.0
  0
LINE
  5
200
330
63
100
AcDbEntity
  8
0
  6
Continuous
 62
     7
100
AcDbLine
 10
-67.37500005958971
 20
82.04999998334169
 30
0.0
 11
-67.3750000595897
 21
81.44999998334168
 31
0.0
  0
LINE
  5
201
330
63
100
AcDbEntity
  8
0
  6
Continuous
 62
     7
100
AcDbLine
 10
-67.9750000595897
 20
81.44999998334167
 30
0.0
 11
-67.97500005958973
 21
82.04999998334168
 31
0.0
  0
LINE
  5
202
330
63
100
AcDbEntity
  8
0
  6
Continuous
 62
     7
100
AcDbLine
 10
-73.12500005958971
 20
81.44999998334154
 30
0.0
 11
-73.12500005958974
 21
82.04999998334155
 31
0.0
  0
LINE
  5
203
330
63
100
AcDbEntity
  8
0
  6
Continuous
 62
     7
100
AcDbLine
 10
-84.7293901267397
 20
77.74999998334012
 30
0.0
 11
-85.70000005958963
 21
77.74999998333998
 31
0.0
  0
LINE
  5
204
330
63
100
AcDbEntity
  8
0
  6
Continuous
 62
     7
100
AcDbLine
 10
-85.70000005958963
 20
77.74999998333998
 30
0.0
 11
-85.70000005958971
 21
81.24999998334124
 31
0.0
  0
LINE
  5
205
330
63
100
AcDbEntity
  8
0
  6
Continuous
 62
     7
100
AcDbLine
 10
-80.5500000595896
 20
77.7499999833401
 30
0.0
 11
-80.55000005958969
 21
81.24999998334137
 31
0.0
  0
LINE
  5
206
330
63
100
AcDbEntity
  8
0
  6
Continuous
 62
     7
100
AcDbLine
 10
-81.52060999243952
 20
77.7499999833402
 30
0.0
 11
-82.22771677362606
 21
77.74999998333988
 31
0.0
  0
LINE
  5
207
330
63
100
AcDbEntity
  8
0
  6
Continuous
 62
     7
100
AcDbLine
 10
-87.07885828290341
 20
78.7499999833401
 30
0.0
 11
-87.07885828290347
 21
81.2499999833412
 31
0.0
  0
LINE
  5
208
330
63
100
AcDbEntity
  8
0
  6
Continuous
 62
     7
100
AcDbLine
 10
-87.07885828290341
 20
78.7499999833401
 30
0.0
 11
-87.78596506408995
 21
78.74999998334
 31
0.0
  0
LINE
  5
209
330
63
100
AcDbEntity
  8
0
  6
Continuous
 62
     7
100
AcDbLine
 10
-83.61403505508932
 20
78.74999998334012
 30
0.0
 11
-84.32114183627587
 21
78.74999998334017
 31
0.0
  0
LINE
  5
20A
330
63
100
AcDbEntity
  8
0
  6
Continuous
 62
     7
100
AcDbLine
 10
-84.32114183627593
 20
81.24999998334127
 30
0.0
 11
-84.32114183627587
 21
78.74999998334017
 31
0.0
  0
LINE
  5
20B
330
63
100
AcDbEntity
  8
0
  6
Continuous
 62
     7
100
AcDbLine
 10
-84.32114183627593
 20
81.24999998334127
 30
0.0
 11
-85.70000005958971
 21
81.24999998334124
 31
0.0
  0
LINE
  5
20C
330
63
100
AcDbEntity
  8
0
  6
Continuous
 62
     7
100
AcDbLine
 10
-87.78596506409005
 20
81.24999998334118
 30
0.0
 11
-87.9750000595897
 21
81.24999998334118
 31
0.0
  0
LINE
  5
20D
330
63
100
AcDbEntity
  8
0
  6
Continuous
 62
     7
100
AcDbLine
 10
-87.07885828290347
 20
81.2499999833412
 30
0.0
 11
-87.78596506409005
 21
81.24999998334118
 31
0.0
  0
LINE
  5
20E
330
63
100
AcDbEntity
  8
0
  6
Continuous
 62
     7
100
AcDbLine
 10
-83.61403505508937
 20
81.24999998334128
 30
0.0
 11
-84.32114183627593
 21
81.24999998334127
 31
0.0
  0
LINE
  5
20F
330
63
100
AcDbEntity
  8
0
  6
Continuous
 62
     7
100
AcDbLine
 10
-83.4250000595897
 20
81.2499999833413
 30
0.0
 11
-83.61403505508937
 21
81.24999998334128
 31
0.0
  0
LINE
  5
210
330
63
100
AcDbEntity
  8
0
  6
Continuous
 62
     7
100
AcDbLine
 10
-85.70000005958971
 20
81.24999998334124
 30
0.0
 11
-87.07885828290347
 21
81.2499999833412
 31
0.0
  0
LINE
  5
211
330
63
100
AcDbEntity
  8
0
  6
Continuous
 62
     7
100
AcDbLine
 10
-83.61403505508932
 20
78.74999998334012
 30
0.0
 11
-83.61403505508937
 21
81.24999998334128
 31
0.0
  0
LINE
  5
212
330
63
100
AcDbEntity
  8
0
  6
Continuous
 62
     7
100
AcDbLine
 10
-84.32114183627587
 20
78.74999998334017
 30
0.0
 11
-84.7293901267397
 21
77.74999998334012
 31
0.0
  0
LINE
  5
213
330
63
100
AcDbEntity
  8
0
  6
Continuous
 62
     7
100
AcDbLine
 10
-80.5500000595896
 20
77.7499999833401
 30
0.0
 11
-81.52060999243952
 21
77.7499999833402
 31
0.0
  0
LINE
  5
214
330
63
100
AcDbEntity
  8
0
  6
Continuous
 62
     7
100
AcDbLine
 10
-78.87228334555316
 20
77.74999998333996
 30
0.0
 11
-79.5793901267397
 21
77.74999998334025
 31
0.0
  0
LINE
  5
215
330
63
100
AcDbEntity
  8
0
  6
Continuous
 62
     7
100
AcDbLine
 10
-79.5793901267397
 20
77.74999998334025
 30
0.0
 11
-80.5500000595896
 21
77.7499999833401
 31
0.0
  0
LINE
  5
216
330
63
100
AcDbEntity
  8
0
  6
Continuous
 62
     7
100
AcDbLine
 10
-76.7788582829034
 20
78.74999998334036
 30
0.0
 11
-77.48596506408994
 21
78.74999998333995
 31
0.0
  0
LINE
  5
217
330
63
100
AcDbEntity
  8
0
  6
Continuous
 62
     7
100
AcDbLine
 10
-76.37060999243951
 20
77.74999998334032
 30
0.0
 11
-76.7788582829034
 21
78.74999998334036
 31
0.0
  0
LINE
  5
218
330
63
100
AcDbEntity
  8
0
  6
Continuous
 62
     7
100
AcDbLine
 10
-73.3140350550893
 20
78.74999998334005
 30
0.0
 11
-74.02114183627586
 21
78.74999998334043
 31
0.0
  0
LINE
  5
219
330
63
100
AcDbEntity
  8
0
  6
Continuous
 62
     7
100
AcDbLine
 10
-66.07060999243951
 20
77.74999998334057
 30
0.0
 11
-66.77771677362605
 21
77.74999998334025
 31
0.0
  0
LINE
  5
21A
330
63
100
AcDbEntity
  8
0
  6
Continuous
 62
     7
100
AcDbLine
 10
-70.25000005958961
 20
77.74999998334036
 30
0.0
 11
-71.2206099924395
 21
77.74999998334044
 31
0.0
  0
LINE
  5
21B
330
63
100
AcDbEntity
  8
0
  6
Continuous
 62
     7
100
AcDbLine
 10
-68.57228334555315
 20
77.7499999833402
 30
0.0
 11
-69.2793901267397
 21
77.7499999833405
 31
0.0
  0
LINE
  5
21C
330
63
100
AcDbEntity
  8
0
  6
Continuous
 62
     7
100
AcDbLine
 10
-74.4293901267397
 20
77.74999998334037
 30
0.0
 11
-75.4000000595896
 21
77.74999998334023
 31
0.0
  0
LINE
  5
21D
330
63
100
AcDbEntity
  8
0
  6
Continuous
 62
     7
100
AcDbLine
 10
-73.72228334555315
 20
77.74999998334008
 30
0.0
 11
-74.4293901267397
 21
77.74999998334037
 31
0.0
  0
LINE
  5
21E
330
63
100
AcDbEntity
  8
0
  6
Continuous
 62
     7
100
AcDbLine
 10
-75.4000000595896
 20
77.74999998334023
 30
0.0
 11
-76.37060999243951
 21
77.74999998334032
 31
0.0
  0
LINE
  5
21F
330
63
100
AcDbEntity
  8
0
  6
Continuous
 62
     7
100
AcDbLine
 10
-65.1000000595896
 20
77.74999998334049
 30
0.0
 11
-66.07060999243951
 21
77.74999998334057
 31
0.0
  0
LINE
  5
220
330
63
100
AcDbEntity
  8
0
  6
Continuous
 62
     7
100
AcDbLine
 10
-76.37060999243951
 20
77.74999998334032
 30
0.0
 11
-77.07771677362605
 21
77.74999998334
 31
0.0
  0
LINE
  5
221
330
63
100
AcDbEntity
  8
0
  6
Continuous
 62
     7
100
AcDbLine
 10
-69.2793901267397
 20
77.7499999833405
 30
0.0
 11
-70.25000005958961
 21
77.74999998334036
 31
0.0
  0
LINE
  5
222
330
63
100
AcDbEntity
  8
0
  6
Continuous
 62
     7
100
AcDbLine
 10
-77.07771677362605
 20
77.74999998334
 30
0.0
 11
-77.48596506408994
 21
78.74999998333995
 31
0.0
  0
LINE
  5
223
330
63
100
AcDbEntity
  8
0
  6
Continuous
 62
     7
100
AcDbLine
 10
-73.3140350550893
 20
78.74999998334005
 30
0.0
 11
-73.72228334555315
 21
77.74999998334008
 31
0.0
  0
LINE
  5
224
330
63
100
AcDbEntity
  8
0
  6
Continuous
 62
     7
100
AcDbLine
 10
-68.1640350550893
 20
78.74999998334017
 30
0.0
 11
-68.57228334555315
 21
77.7499999833402
 31
0.0
  0
LINE
  5
225
330
63
100
AcDbEntity
  8
0
  6
Continuous
 62
     7
100
AcDbLine
 10
-74.02114183627586
 20
78.74999998334043
 30
0.0
 11
-74.4293901267397
 21
77.74999998334037
 31
0.0
  0
LINE
  5
226
330
63
100
AcDbEntity
  8
0
  6
Continuous
 62
     7
100
AcDbLine
 10
-66.77771677362605
 20
77.74999998334025
 30
0.0
 11
-67.18596506408996
 21
78.74999998334052
 31
0.0
  0
LINE
  5
227
330
63
100
AcDbEntity
  8
0
  6
Continuous
 62
     7
100
AcDbLine
 10
-79.17114183627586
 20
78.7499999833403
 30
0.0
 11
-79.5793901267397
 21
77.74999998334025
 31
0.0
  0
LINE
  5
228
330
63
100
AcDbEntity
  8
0
  6
Continuous
 62
     7
100
AcDbLine
 10
-78.46403505508931
 20
78.74999998334023
 30
0.0
 11
-78.87228334555316
 21
77.74999998333996
 31
0.0
  0
LINE
  5
229
330
63
100
AcDbEntity
  8
0
  6
Continuous
 62
     7
100
AcDbLine
 10
-82.22771677362606
 20
77.74999998333988
 30
0.0
 11
-82.63596506408994
 21
78.74999998333982
 31
0.0
  0
LINE
  5
22A
330
63
100
AcDbEntity
  8
0
  6
Continuous
 62
     7
100
AcDbLine
 10
-83.61403505508932
 20
78.74999998334012
 30
0.0
 11
-84.02228334555316
 21
77.74999998333983
 31
0.0
  0
LINE
  5
22B
330
63
100
AcDbEntity
  8
0
  6
Continuous
 62
     7
100
AcDbLine
 10
-83.42500005958973
 20
82.04999998334131
 30
0.0
 11
-82.82500005958973
 21
82.0499999833413
 31
0.0
  0
LINE
  5
22C
330
63
100
AcDbEntity
  8
0
  6
Continuous
 62
     7
100
AcDbLine
 10
-67.97500005958973
 20
82.04999998334168
 30
0.0
 11
-67.37500005958971
 21
82.04999998334169
 31
0.0
  0
LINE
  5
22D
330
63
100
AcDbEntity
  8
0
  6
Continuous
 62
     7
100
AcDbLine
 10
-72.52500005958971
 20
82.24999998334157
 30
0.0
 11
-72.52500005958971
 21
82.04999998334156
 31
0.0
  0
LINE
  5
22E
330
63
100
AcDbEntity
  8
0
  6
Continuous
 62
     7
100
AcDbLine
 10
-67.97500005958973
 20
82.04999998334168
 30
0.0
 11
-67.97500005958972
 21
82.24999998334167
 31
0.0
  0
LINE
  5
22F
330
63
100
AcDbEntity
  8
0
  6
Continuous
 62
     7
100
AcDbLine
 10
-73.12500005958974
 20
82.04999998334155
 30
0.0
 11
-73.12500005958972
 21
82.24999998334154
 31
0.0
  0
LINE
  5
230
330
63
100
AcDbEntity
  8
0
  6
Continuous
 62
     7
100
AcDbLine
 10
-83.42500005958973
 20
82.2499999833413
 30
0.0
 11
-87.97500005958973
 21
82.24999998334118
 31
0.0
  0
LINE
  5
231
330
63
100
AcDbEntity
  8
0
  6
Continuous
 62
     7
100
AcDbLine
 10
-73.12500005958974
 20
82.04999998334155
 30
0.0
 11
-72.52500005958971
 21
82.04999998334156
 31
0.0
  0
LINE
  5
232
330
63
100
AcDbEntity
  8
0
  6
Continuous
 62
     7
100
AcDbLine
 10
-73.12500005958972
 20
82.24999998334154
 30
0.0
 11
-77.67500005958972
 21
82.24999998334144
 31
0.0
  0
LINE
  5
233
330
63
100
AcDbEntity
  8
0
  6
Continuous
 62
     7
100
AcDbLine
 10
-67.97500005958972
 20
82.24999998334167
 30
0.0
 11
-72.52500005958971
 21
82.24999998334157
 31
0.0
  0
LINE
  5
234
330
63
100
AcDbEntity
  8
0
  6
Continuous
 62
     7
100
AcDbLine
 10
-63.01403505508931
 20
78.7499999833403
 30
0.0
 11
-63.42228334555315
 21
77.74999998334033
 31
0.0
  0
LINE
  5
235
330
63
100
AcDbEntity
  8
0
  6
Continuous
 62
     7
100
AcDbLine
 10
-64.12939012673971
 20
77.74999998334062
 30
0.0
 11
-65.1000000595896
 21
77.74999998334049
 31
0.0
  0
LINE
  5
236
330
63
100
AcDbEntity
  8
0
  6
Continuous
 62
     7
100
AcDbLine
 10
-63.01403505508931
 20
78.7499999833403
 30
0.0
 11
-63.72114183627587
 21
78.74999998334069
 31
0.0
  0
LINE
  5
237
330
63
100
AcDbEntity
  8
0
  6
Continuous
 62
     7
100
AcDbLine
 10
-63.01403505508937
 20
81.2499999833418
 30
0.0
 11
-63.01403505508931
 21
78.7499999833403
 31
0.0
  0
LINE
  5
238
330
63
100
AcDbEntity
  8
0
  6
Continuous
 62
     7
100
AcDbLine
 10
-63.42228334555315
 20
77.74999998334033
 30
0.0
 11
-64.12939012673971
 21
77.74999998334062
 31
0.0
  0
LINE
  5
239
330
63
100
AcDbEntity
  8
0
  6
Continuous
 62
     7
100
AcDbLine
 10
-63.72114183627593
 20
81.24999998334178
 30
0.0
 11
-63.72114183627587
 21
78.74999998334069
 31
0.0
  0
LINE
  5
23A
330
63
100
AcDbEntity
  8
0
  6
Continuous
 62
     7
100
AcDbLine
 10
-62.8250000595897
 20
81.2499999833418
 30
0.0
 11
-62.82500005958973
 21
82.2499999833418
 31
0.0
  0
LINE
  5
23B
330
63
100
AcDbEntity
  8
0
  6
Continuous
 62
     7
100
AcDbLine
 10
-65.1000000595897
 20
81.24999998334174
 30
0.0
 11
-65.1000000595896
 21
77.74999998334049
 31
0.0
  0
LINE
  5
23C
330
63
100
AcDbEntity
  8
0
  6
Continuous
 62
     7
100
AcDbLine
 10
-63.72114183627587
 20
78.74999998334069
 30
0.0
 11
-64.12939012673971
 21
77.74999998334062
 31
0.0
  0
LINE
  5
23D
330
63
100
AcDbEntity
  8
0
  6
Continuous
 62
     7
100
AcDbLine
 10
-81.9288582829034
 20
78.74999998334023
 30
0.0
 11
-81.92885828290346
 21
81.24999998334133
 31
0.0
  0
LINE
  5
23E
330
63
100
AcDbEntity
  8
0
  6
Continuous
 62
     7
100
AcDbLine
 10
-81.9288582829034
 20
78.74999998334023
 30
0.0
 11
-82.63596506408994
 21
78.74999998333982
 31
0.0
  0
LINE
  5
23F
330
63
100
AcDbEntity
  8
0
  6
Continuous
 62
     7
100
AcDbLine
 10
-82.8250000595897
 20
81.44999998334131
 30
0.0
 11
-82.8250000595897
 21
81.24999998334131
 31
0.0
  0
LINE
  5
240
330
63
100
AcDbEntity
  8
0
  6
Continuous
 62
     7
100
AcDbLine
 10
-82.82500005958973
 20
82.0499999833413
 30
0.0
 11
-82.8250000595897
 21
81.44999998334131
 31
0.0
  0
LINE
  5
241
330
63
100
AcDbEntity
  8
0
  6
Continuous
 62
     7
100
AcDbLine
 10
-82.63596506408994
 20
78.74999998333982
 30
0.0
 11
-82.63596506409
 21
81.24999998334131
 31
0.0
  0
LINE
  5
242
330
63
100
AcDbEntity
  8
0
  6
Continuous
 62
     7
100
AcDbLine
 10
-78.46403505508931
 20
78.74999998334023
 30
0.0
 11
-79.17114183627586
 21
78.7499999833403
 31
0.0
  0
LINE
  5
243
330
63
100
AcDbEntity
  8
0
  6
Continuous
 62
     7
100
AcDbLine
 10
-78.2750000595897
 20
81.24999998334143
 30
0.0
 11
-78.27500005958971
 21
81.44999998334141
 31
0.0
  0
LINE
  5
244
330
63
100
AcDbEntity
  8
0
  6
Continuous
 62
     7
100
AcDbLine
 10
-79.17114183627592
 20
81.2499999833414
 30
0.0
 11
-79.17114183627586
 21
78.7499999833403
 31
0.0
  0
LINE
  5
245
330
63
100
AcDbEntity
  8
0
  6
Continuous
 62
     7
100
AcDbLine
 10
-78.46403505508931
 20
78.74999998334023
 30
0.0
 11
-78.46403505508937
 21
81.24999998334141
 31
0.0
  0
LINE
  5
246
330
63
100
AcDbEntity
  8
0
  6
Continuous
 62
     7
100
AcDbLine
 10
-82.82500005958973
 20
82.24999998334131
 30
0.0
 11
-82.82500005958973
 21
82.0499999833413
 31
0.0
  0
LINE
  5
247
330
63
100
AcDbEntity
  8
0
  6
Continuous
 62
     7
100
AcDbLine
 10
-77.67500005958969
 20
81.44999998334143
 30
0.0
 11
-78.27500005958971
 21
81.44999998334141
 31
0.0
  0
LINE
  5
248
330
63
100
AcDbEntity
  8
0
  6
Continuous
 62
     7
100
AcDbLine
 10
-77.67500005958969
 20
81.44999998334143
 30
0.0
 11
-77.67500005958969
 21
81.24999998334144
 31
0.0
  0
LINE
  5
249
330
63
100
AcDbEntity
  8
0
  6
Continuous
 62
     7
100
AcDbLine
 10
-77.6750000595897
 20
82.04999998334144
 30
0.0
 11
-77.67500005958969
 21
81.44999998334143
 31
0.0
  0
LINE
  5
24A
330
63
100
AcDbEntity
  8
0
  6
Continuous
 62
     7
100
AcDbLine
 10
-78.27500005958971
 20
82.04999998334142
 30
0.0
 11
-78.27500005958973
 21
82.24999998334143
 31
0.0
  0
LINE
  5
24B
330
63
100
AcDbEntity
  8
0
  6
Continuous
 62
     7
100
AcDbLine
 10
-78.27500005958971
 20
81.44999998334141
 30
0.0
 11
-78.27500005958971
 21
82.04999998334142
 31
0.0
  0
LINE
  5
24C
330
63
100
AcDbEntity
  8
0
  6
Continuous
 62
     7
100
AcDbLine
 10
-77.48596506408994
 20
78.74999998333995
 30
0.0
 11
-77.48596506409
 21
81.24999998334144
 31
0.0
  0
LINE
  5
24D
330
63
100
AcDbEntity
  8
0
  6
Continuous
 62
     7
100
AcDbLine
 10
-82.8250000595897
 20
81.44999998334131
 30
0.0
 11
-83.42500005958972
 21
81.44999998334129
 31
0.0
  0
LINE
  5
24E
330
63
100
AcDbEntity
  8
0
  6
Continuous
 62
     7
100
AcDbLine
 10
-77.48596506409
 20
81.24999998334144
 30
0.0
 11
-77.67500005958969
 21
81.24999998334144
 31
0.0
  0
LINE
  5
24F
330
63
100
AcDbEntity
  8
0
  6
Continuous
 62
     7
100
AcDbLine
 10
-81.92885828290346
 20
81.24999998334133
 30
0.0
 11
-82.63596506409
 21
81.24999998334131
 31
0.0
  0
LINE
  5
250
330
63
100
AcDbEntity
  8
0
  6
Continuous
 62
     7
100
AcDbLine
 10
-82.63596506409
 20
81.24999998334131
 30
0.0
 11
-82.8250000595897
 21
81.24999998334131
 31
0.0
  0
LINE
  5
251
330
63
100
AcDbEntity
  8
0
  6
Continuous
 62
     7
100
AcDbLine
 10
-78.2750000595897
 20
81.24999998334143
 30
0.0
 11
-78.46403505508937
 21
81.24999998334141
 31
0.0
  0
LINE
  5
252
330
63
100
AcDbEntity
  8
0
  6
Continuous
 62
     7
100
AcDbLine
 10
-78.46403505508937
 20
81.24999998334141
 30
0.0
 11
-79.17114183627592
 21
81.2499999833414
 31
0.0
  0
LINE
  5
253
330
63
100
AcDbEntity
  8
0
  6
Continuous
 62
     7
100
AcDbLine
 10
-79.17114183627592
 20
81.2499999833414
 30
0.0
 11
-80.55000005958969
 21
81.24999998334137
 31
0.0
  0
LINE
  5
254
330
63
100
AcDbEntity
  8
0
  6
Continuous
 62
     7
100
AcDbLine
 10
-80.55000005958969
 20
81.24999998334137
 30
0.0
 11
-81.92885828290346
 21
81.24999998334133
 31
0.0
  0
LINE
  5
255
330
63
100
AcDbEntity
  8
0
  6
Continuous
 62
     7
100
AcDbLine
 10
-78.27500005958971
 20
82.04999998334142
 30
0.0
 11
-77.6750000595897
 21
82.04999998334144
 31
0.0
  0
LINE
  5
256
330
63
100
AcDbEntity
  8
0
  6
Continuous
 62
     7
100
AcDbLine
 10
-77.67500005958972
 20
82.24999998334144
 30
0.0
 11
-77.6750000595897
 21
82.04999998334144
 31
0.0
  0
LINE
  5
257
330
63
100
AcDbEntity
  8
0
  6
Continuous
 62
     7
100
AcDbLine
 10
-83.4250000595897
 20
81.2499999833413
 30
0.0
 11
-83.42500005958972
 21
81.44999998334129
 31
0.0
  0
LINE
  5
258
330
63
100
AcDbEntity
  8
0
  6
Continuous
 62
     7
100
AcDbLine
 10
-83.42500005958973
 20
82.04999998334131
 30
0.0
 11
-83.42500005958973
 21
82.2499999833413
 31
0.0
  0
LINE
  5
259
330
63
100
AcDbEntity
  8
0
  6
Continuous
 62
     7
100
AcDbLine
 10
-83.42500005958972
 20
81.44999998334129
 30
0.0
 11
-83.42500005958973
 21
82.04999998334131
 31
0.0
  0
LINE
  5
25A
330
63
100
AcDbEntity
  8
0
  6
Continuous
 62
     7
100
AcDbLine
 10
-78.27500005958973
 20
82.24999998334143
 30
0.0
 11
-82.82500005958973
 21
82.24999998334131
 31
0.0
  0
LINE
  5
25B
330
63
100
AcDbEntity
  8
0
  6
Continuous
 62
     7
100
AcDbLine
 10
-68.1640350550893
 20
78.74999998334017
 30
0.0
 11
-68.87114183627587
 21
78.74999998334056
 31
0.0
  0
LINE
  5
25C
330
63
100
AcDbEntity
  8
0
  6
Continuous
 62
     7
100
AcDbLine
 10
-68.16403505508937
 20
81.24999998334167
 30
0.0
 11
-68.1640350550893
 21
78.74999998334017
 31
0.0
  0
LINE
  5
25D
330
63
100
AcDbEntity
  8
0
  6
Continuous
 62
     7
100
AcDbLine
 10
-66.4788582829034
 20
78.74999998334062
 30
0.0
 11
-67.18596506408996
 21
78.74999998334052
 31
0.0
  0
LINE
  5
25E
330
63
100
AcDbEntity
  8
0
  6
Continuous
 62
     7
100
AcDbLine
 10
-67.18596506408996
 20
78.74999998334052
 30
0.0
 11
-67.18596506409001
 21
81.2499999833417
 31
0.0
  0
LINE
  5
25F
330
63
100
AcDbEntity
  8
0
  6
Continuous
 62
     7
100
AcDbLine
 10
-68.87114183627592
 20
81.24999998334165
 30
0.0
 11
-68.87114183627587
 21
78.74999998334056
 31
0.0
  0
LINE
  5
260
330
63
100
AcDbEntity
  8
0
  6
Continuous
 62
     7
100
AcDbLine
 10
-66.4788582829034
 20
78.74999998334062
 30
0.0
 11
-66.47885828290346
 21
81.24999998334171
 31
0.0
  0
LINE
  5
261
330
63
100
AcDbEntity
  8
0
  6
Continuous
 62
     7
100
AcDbLine
 10
-66.07060999243951
 20
77.74999998334057
 30
0.0
 11
-66.4788582829034
 21
78.74999998334062
 31
0.0
  0
LINE
  5
262
330
63
100
AcDbEntity
  8
0
  6
Continuous
 62
     7
100
AcDbLine
 10
-69.2793901267397
 20
77.7499999833405
 30
0.0
 11
-68.87114183627587
 21
78.74999998334056
 31
0.0
  0
LINE
  5
263
330
63
100
AcDbEntity
  8
0
  6
Continuous
 62
     7
100
AcDbLine
 10
-73.1250000595897
 20
81.24999998334154
 30
0.0
 11
-73.12500005958971
 21
81.44999998334154
 31
0.0
  0
LINE
  5
264
330
63
100
AcDbEntity
  8
0
  6
Continuous
 62
     7
100
AcDbLine
 10
-72.5250000595897
 20
81.44999998334156
 30
0.0
 11
-72.5250000595897
 21
81.24999998334157
 31
0.0
  0
LINE
  5
265
330
63
100
AcDbEntity
  8
0
  6
Continuous
 62
     7
100
AcDbLine
 10
-67.9750000595897
 20
81.24999998334167
 30
0.0
 11
-67.9750000595897
 21
81.44999998334167
 31
0.0
  0
LINE
  5
266
330
63
100
AcDbEntity
  8
0
  6
Continuous
 62
     7
100
AcDbLine
 10
-68.87114183627592
 20
81.24999998334165
 30
0.0
 11
-70.2500000595897
 21
81.24999998334161
 31
0.0
  0
LINE
  5
267
330
63
100
AcDbEntity
  8
0
  6
Continuous
 62
     7
100
AcDbLine
 10
-67.9750000595897
 20
81.24999998334167
 30
0.0
 11
-68.16403505508937
 21
81.24999998334167
 31
0.0
  0
LINE
  5
268
330
63
100
AcDbEntity
  8
0
  6
Continuous
 62
     7
100
AcDbLine
 10
-68.16403505508937
 20
81.24999998334167
 30
0.0
 11
-68.87114183627592
 21
81.24999998334165
 31
0.0
  0
LINE
  5
269
330
63
100
AcDbEntity
  8
0
  6
Continuous
 62
     7
100
AcDbLine
 10
-72.5250000595897
 20
81.44999998334156
 30
0.0
 11
-73.12500005958971
 21
81.44999998334154
 31
0.0
  0
LINE
  5
26A
330
63
100
AcDbEntity
  8
0
  6
Continuous
 62
     7
100
AcDbLine
 10
-67.3750000595897
 20
81.44999998334168
 30
0.0
 11
-67.9750000595897
 21
81.44999998334167
 31
0.0
  0
LINE
  5
26B
330
63
100
AcDbEntity
  8
0
  6
Continuous
 62
     7
100
AcDbLine
 10
-63.72114183627593
 20
81.24999998334178
 30
0.0
 11
-65.1000000595897
 21
81.24999998334174
 31
0.0
  0
LINE
  5
26C
330
63
100
AcDbEntity
  8
0
  6
Continuous
 62
     7
100
AcDbLine
 10
-62.8250000595897
 20
81.2499999833418
 30
0.0
 11
-63.01403505508937
 21
81.2499999833418
 31
0.0
  0
LINE
  5
26D
330
63
100
AcDbEntity
  8
0
  6
Continuous
 62
     7
100
AcDbLine
 10
-63.01403505508937
 20
81.2499999833418
 30
0.0
 11
-63.72114183627593
 21
81.24999998334178
 31
0.0
  0
LINE
  5
26E
330
63
100
AcDbEntity
  8
0
  6
Continuous
 62
     7
100
AcDbLine
 10
-67.18596506409001
 20
81.2499999833417
 30
0.0
 11
-67.3750000595897
 21
81.24999998334168
 31
0.0
  0
LINE
  5
26F
330
63
100
AcDbEntity
  8
0
  6
Continuous
 62
     7
100
AcDbLine
 10
-66.47885828290346
 20
81.24999998334171
 30
0.0
 11
-67.18596506409001
 21
81.2499999833417
 31
0.0
  0
LINE
  5
270
330
63
100
AcDbEntity
  8
0
  6
Continuous
 62
     7
100
AcDbLine
 10
-65.1000000595897
 20
81.24999998334174
 30
0.0
 11
-66.47885828290346
 21
81.24999998334171
 31
0.0
  0
LINE
  5
271
330
63
100
AcDbEntity
  8
0
  6
Continuous
 62
     7
100
AcDbLine
 10
-72.33596506409
 20
81.24999998334157
 30
0.0
 11
-72.5250000595897
 21
81.24999998334157
 31
0.0
  0
LINE
  5
272
330
63
100
AcDbEntity
  8
0
  6
Continuous
 62
     7
100
AcDbLine
 10
-72.52500005958971
 20
82.04999998334156
 30
0.0
 11
-72.5250000595897
 21
81.44999998334156
 31
0.0
  0
LINE
  5
273
330
63
100
AcDbEntity
  8
0
  6
Continuous
 62
     7
100
AcDbLine
 10
-76.77885828290347
 20
81.24999998334145
 30
0.0
 11
-77.48596506409
 21
81.24999998334144
 31
0.0
  0
LINE
  5
274
330
63
100
AcDbEntity
  8
0
  6
Continuous
 62
     7
100
AcDbLine
 10
-76.7788582829034
 20
78.74999998334036
 30
0.0
 11
-76.77885828290347
 21
81.24999998334145
 31
0.0
  0
LINE
  5
275
330
63
100
AcDbEntity
  8
0
  6
Continuous
 62
     7
100
AcDbLine
 10
-75.40000005958969
 20
81.2499999833415
 30
0.0
 11
-76.77885828290347
 21
81.24999998334145
 31
0.0
  0
LINE
  5
276
330
63
100
AcDbEntity
  8
0
  6
Continuous
 62
     7
100
AcDbLine
 10
-75.4000000595896
 20
77.74999998334023
 30
0.0
 11
-75.40000005958969
 21
81.2499999833415
 31
0.0
  0
LINE
  5
277
330
63
100
AcDbEntity
  8
0
  6
Continuous
 62
     7
100
AcDbLine
 10
-74.02114183627593
 20
81.24999998334152
 30
0.0
 11
-75.40000005958969
 21
81.2499999833415
 31
0.0
  0
LINE
  5
278
330
63
100
AcDbEntity
  8
0
  6
Continuous
 62
     7
100
AcDbLine
 10
-71.62885828290341
 20
78.74999998334049
 30
0.0
 11
-71.62885828290347
 21
81.24999998334158
 31
0.0
  0
LINE
  5
279
330
63
100
AcDbEntity
  8
0
  6
Continuous
 62
     7
100
AcDbLine
 10
-74.02114183627593
 20
81.24999998334152
 30
0.0
 11
-74.02114183627586
 21
78.74999998334043
 31
0.0
  0
LINE
  5
27A
330
63
100
AcDbEntity
  8
0
  6
Continuous
 62
     7
100
AcDbLine
 10
-71.62885828290347
 20
81.24999998334158
 30
0.0
 11
-72.33596506409
 21
81.24999998334157
 31
0.0
  0
LINE
  5
27B
330
63
100
AcDbEntity
  8
0
  6
Continuous
 62
     7
100
AcDbLine
 10
-70.2500000595897
 20
81.24999998334161
 30
0.0
 11
-71.62885828290347
 21
81.24999998334158
 31
0.0
  0
LINE
  5
27C
330
63
100
AcDbEntity
  8
0
  6
Continuous
 62
     7
100
AcDbLine
 10
-73.1250000595897
 20
81.24999998334154
 30
0.0
 11
-73.31403505508936
 21
81.24999998334154
 31
0.0
  0
LINE
  5
27D
330
63
100
AcDbEntity
  8
0
  6
Continuous
 62
     7
100
AcDbLine
 10
-73.31403505508936
 20
81.24999998334154
 30
0.0
 11
-74.02114183627593
 21
81.24999998334152
 31
0.0
  0
LINE
  5
27E
330
63
100
AcDbEntity
  8
0
  6
Continuous
 62
     7
100
AcDbLine
 10
-71.2206099924395
 20
77.74999998334044
 30
0.0
 11
-71.92771677362606
 21
77.74999998334035
 31
0.0
  0
LINE
  5
27F
330
63
100
AcDbEntity
  8
0
  6
Continuous
 62
     7
100
AcDbLine
 10
-71.62885828290341
 20
78.74999998334049
 30
0.0
 11
-72.33596506408995
 21
78.74999998334039
 31
0.0
  0
LINE
  5
280
330
63
100
AcDbEntity
  8
0
  6
Continuous
 62
     7
100
AcDbLine
 10
-70.2500000595897
 20
81.24999998334161
 30
0.0
 11
-70.25000005958961
 21
77.74999998334036
 31
0.0
  0
LINE
  5
281
330
63
100
AcDbEntity
  8
0
  6
Continuous
 62
     7
100
AcDbLine
 10
-73.31403505508936
 20
81.24999998334154
 30
0.0
 11
-73.3140350550893
 21
78.74999998334005
 31
0.0
  0
LINE
  5
282
330
63
100
AcDbEntity
  8
0
  6
Continuous
 62
     7
100
AcDbLine
 10
-71.2206099924395
 20
77.74999998334044
 30
0.0
 11
-71.62885828290341
 21
78.74999998334049
 31
0.0
  0
LINE
  5
283
330
63
100
AcDbEntity
  8
0
  6
Continuous
 62
     7
100
AcDbLine
 10
-72.33596506408995
 20
78.74999998334039
 30
0.0
 11
-71.92771677362606
 21
77.74999998334035
 31
0.0
  0
LINE
  5
284
330
63
100
AcDbEntity
  8
0
  6
Continuous
 62
     7
100
AcDbLine
 10
-72.33596506408995
 20
78.74999998334039
 30
0.0
 11
-72.33596506409
 21
81.24999998334157
 31
0.0
  0
LINE
  5
285
330
63
100
AcDbEntity
  8
0
  6
Continuous
 62
     7
100
AcDbLine
 10
-81.52060999243952
 20
77.7499999833402
 30
0.0
 11
-81.9288582829034
 21
78.74999998334023
 31
0.0
  0
ENDBLK
  5
65
330
63
100
AcDbEntity
  8
0
100
AcDbBlockEnd
  0
BLOCK
  5
68
330
66
100
AcDbEntity
  8
0
100
AcDbBlockBegin
  2
SA_Rechts1
 70
     0
 10
-75.39999986886983
 20
79.999999999995
 30
0.0
  3
SA_Rechts1
  1

  0
INSERT
  5
67
330
66
100
AcDbEntity
  8
0
100
AcDbBlockReference
  2
3030941_WST_2_5-select__5
 10
-87.97500005958973
 20
77.74999998333983
 30
0.0
  0
MTEXT
  5
286
330
66
100
AcDbEntity
  8
1
 62
     6
100
AcDbMText
 10
-75.39999986886983
 20
75.24999999999466
 30
0.0
 40
2.5
 41
0.0
 71
     2
 72
     1
  1
 
  7
CONVERTER_11
 73
     1
 44
1.32052821128451
  0
ENDBLK
  5
69
330
66
100
AcDbEntity
  8
0
100
AcDbBlockEnd
  0
BLOCK
  5
6B
330
6A
100
AcDbEntity
  8
0
100
AcDbBlockBegin
  2
3030941_WST_2_5-select__6
 70
     0
 10
-52.82499993715075
 20
77.74999998333988
 30
0.0
  3
3030941_WST_2_5-select__6
  1

  0
LINE
  5
287
330
6A
100
AcDbEntity
  8
0
  6
Continuous
 62
     7
100
AcDbLine
 10
-50.69999982228886
 20
77.74999998333988
 30
0.0
 11
-51.67060975513873
 21
77.74999998334
 31
0.0
  0
LINE
  5
288
330
6A
100
AcDbEntity
  8
0
  6
Continuous
 62
     7
100
AcDbLine
 10
-52.07885804560272
 20
78.74999998333995
 30
0.0
 11
-52.78596482678925
 21
78.74999998333995
 31
0.0
  0
LINE
  5
289
330
6A
100
AcDbEntity
  8
0
  6
Continuous
 62
     7
100
AcDbLine
 10
-51.67060975513873
 20
77.74999998334
 30
0.0
 11
-52.37771653632528
 21
77.74999998333999
 31
0.0
  0
LINE
  5
28A
330
6A
100
AcDbEntity
  8
0
  6
Continuous
 62
     7
100
AcDbLine
 10
-51.67060975513873
 20
77.74999998334
 30
0.0
 11
-52.07885804560272
 21
78.74999998333995
 31
0.0
  0
LINE
  5
28B
330
6A
100
AcDbEntity
  8
0
  6
Continuous
 62
     7
100
AcDbLine
 10
-48.57499993715076
 20
82.24999998334144
 30
0.0
 11
-48.57499993715076
 21
81.24999998334144
 31
0.0
  0
LINE
  5
28C
330
6A
100
AcDbEntity
  8
0
  6
Continuous
 62
     7
100
AcDbLine
 10
-52.82499993715075
 20
81.24999998334144
 30
0.0
 11
-52.78596482678954
 21
81.24999998334152
 31
0.0
  0
LINE
  5
28D
330
6A
100
AcDbEntity
  8
0
  6
Continuous
 62
     7
100
AcDbLine
 10
-52.78596482678954
 20
81.24999998334152
 30
0.0
 11
-52.07885804560306
 21
81.24999998334118
 31
0.0
  0
LINE
  5
28E
330
6A
100
AcDbEntity
  8
0
  6
Continuous
 62
     7
100
AcDbLine
 10
-49.32114159897553
 20
81.24999998334118
 30
0.0
 11
-48.61403481778889
 21
81.24999998334165
 31
0.0
  0
LINE
  5
28F
330
6A
100
AcDbEntity
  8
0
  6
Continuous
 62
     7
100
AcDbLine
 10
-50.69999982228926
 20
81.24999998334123
 30
0.0
 11
-49.32114159897553
 21
81.24999998334118
 31
0.0
  0
LINE
  5
290
330
6A
100
AcDbEntity
  8
0
  6
Continuous
 62
     7
100
AcDbLine
 10
-48.61403481778889
 20
81.24999998334165
 30
0.0
 11
-48.57499993715076
 21
81.24999998334144
 31
0.0
  0
LINE
  5
291
330
6A
100
AcDbEntity
  8
0
  6
Continuous
 62
     7
100
AcDbLine
 10
-52.07885804560306
 20
81.24999998334118
 30
0.0
 11
-50.69999982228926
 21
81.24999998334123
 31
0.0
  0
LINE
  5
292
330
6A
100
AcDbEntity
  8
0
  6
Continuous
 62
     7
100
AcDbLine
 10
-52.82499993715075
 20
81.24999998334144
 30
0.0
 11
-52.82499993715075
 21
82.24999998334144
 31
0.0
  0
LINE
  5
293
330
6A
100
AcDbEntity
  8
0
  6
Continuous
 62
     7
100
AcDbLine
 10
-48.57499993715076
 20
82.24999998334144
 30
0.0
 11
-52.82499993715075
 21
82.24999998334144
 31
0.0
  0
LINE
  5
294
330
6A
100
AcDbEntity
  8
0
  6
Continuous
 62
     7
100
AcDbLine
 10
-48.61403481778889
 20
81.24999998334165
 30
0.0
 11
-48.6140348177886
 21
78.74999998334056
 31
0.0
  0
LINE
  5
295
330
6A
100
AcDbEntity
  8
0
  6
Continuous
 62
     7
100
AcDbLine
 10
-49.02228310825235
 20
77.7499999833405
 30
0.0
 11
-48.6140348177886
 21
78.74999998334056
 31
0.0
  0
LINE
  5
296
330
6A
100
AcDbEntity
  8
0
  6
Continuous
 62
     7
100
AcDbLine
 10
-48.6140348177886
 20
78.74999998334056
 30
0.0
 11
-49.32114159897521
 21
78.74999998334
 31
0.0
  0
LINE
  5
297
330
6A
100
AcDbEntity
  8
0
  6
Continuous
 62
     7
100
AcDbLine
 10
-49.32114159897521
 20
78.74999998334
 30
0.0
 11
-49.32114159897553
 21
81.24999998334118
 31
0.0
  0
LINE
  5
298
330
6A
100
AcDbEntity
  8
0
  6
Continuous
 62
     7
100
AcDbLine
 10
-49.72938988943897
 20
77.74999998333998
 30
0.0
 11
-50.69999982228886
 21
77.74999998333988
 31
0.0
  0
LINE
  5
299
330
6A
100
AcDbEntity
  8
0
  6
Continuous
 62
     7
100
AcDbLine
 10
-49.02228310825235
 20
77.7499999833405
 30
0.0
 11
-49.72938988943897
 21
77.74999998333998
 31
0.0
  0
LINE
  5
29A
330
6A
100
AcDbEntity
  8
0
  6
Continuous
 62
     7
100
AcDbLine
 10
-49.32114159897521
 20
78.74999998334
 30
0.0
 11
-49.72938988943897
 21
77.74999998333998
 31
0.0
  0
LINE
  5
29B
330
6A
100
AcDbEntity
  8
0
  6
Continuous
 62
     7
100
AcDbLine
 10
-50.69999982228886
 20
77.74999998333988
 30
0.0
 11
-50.69999982228926
 21
81.24999998334123
 31
0.0
  0
LINE
  5
29C
330
6A
100
AcDbEntity
  8
0
  6
Continuous
 62
     7
100
AcDbLine
 10
-52.07885804560272
 20
78.74999998333995
 30
0.0
 11
-52.07885804560306
 21
81.24999998334118
 31
0.0
  0
LINE
  5
29D
330
6A
100
AcDbEntity
  8
0
  6
Continuous
 62
     7
100
AcDbLine
 10
-52.78596482678925
 20
78.74999998333995
 30
0.0
 11
-52.78596482678954
 21
81.24999998334152
 31
0.0
  0
LINE
  5
29E
330
6A
100
AcDbEntity
  8
0
  6
Continuous
 62
     7
100
AcDbLine
 10
-52.37771653632528
 20
77.74999998333999
 30
0.0
 11
-52.78596482678925
 21
78.74999998333995
 31
0.0
  0
ENDBLK
  5
6C
330
6A
100
AcDbEntity
  8
0
100
AcDbBlockEnd
  0
BLOCK
  5
6F
330
6D
100
AcDbEntity
  8
0
100
AcDbBlockBegin
  2
Vordans1
 70
     0
 10
-50.69999993443497
 20
79.999999999995
 30
0.0
  3
Vordans1
  1

  0
INSERT
  5
6E
330
6D
100
AcDbEntity
  8
0
100
AcDbBlockReference
  2
3030941_WST_2_5-select__6
 10
-52.82499993715075
 20
77.74999998333988
 30
0.0
  0
MTEXT
  5
29F
330
6D
100
AcDbEntity
  8
1
 62
     6
100
AcDbMText
 10
-50.69999993443491
 20
75.24999999999466
 30
0.0
 40
2.5
 41
0.0
 71
     2
 72
     1
  1
 
  7
CONVERTER_11
 73
     1
 44
1.32052821128451
  0
DIMENSION
  5
2AC
330
6D
100
AcDbEntity
  8
1
100
AcDbDimension
  2
*D19
 10
-42.3454310817308
 20
82.24999998334144
 30
0.0
 11
-44.3079310817308
 21
86.8375718466175
 31
0.0
 70
    32
  1
<>
 71
     5
 42
-1.0
 53
90.0
  3
ME10_DIM_13
100
AcDbAlignedDimension
 13
-50.69999982228886
 23
77.74999998333988
 33
0.0
 14
-48.57499993715076
 24
82.24999998334144
 34
0.0
 50
90.0
100
AcDbRotatedDimension
  0
ENDBLK
  5
70
330
6D
100
AcDbEntity
  8
0
100
AcDbBlockEnd
  0
BLOCK
  5
72
330
71
100
AcDbEntity
  8
0
100
AcDbBlockBegin
  2
_punkt
 70
     0
 10
47.9623302529381
 20
7.28207210725119
 30
0.0
  3
_punkt
  1

  0
LINE
  5
2AD
330
71
100
AcDbEntity
  8
1
  6
Continuous
 62
     2
100
AcDbLine
 10
47.9623302529381
 20
7.28207210725119
 30
0.0
 11
47.9623302529381
 21
2.28207210725108
 31
0.0
  0
LINE
  5
2AE
330
71
100
AcDbEntity
  8
1
  6
Continuous
 62
     2
100
AcDbLine
 10
47.9623302529381
 20
7.28207210725119
 30
0.0
 11
52.96233025293711
 21
7.28207210725119
 31
0.0
  0
ENDBLK
  5
73
330
71
100
AcDbEntity
  8
0
100
AcDbBlockEnd
  0
BLOCK
  5
75
330
74
100
AcDbEntity
  8
0
100
AcDbBlockBegin
  2
_rahmen
 70
     0
 10
47.9623302529381
 20
2.28207210725108
 30
0.0
  3
_rahmen
  1

  0
POINT
  5
2AF
330
74
100
AcDbEntity
  8
1
 62
     3
 60
     1
100
AcDbPoint
 10
-15.53766974705952
 20
28.53207210725106
 30
0.0
  0
LINE
  5
2B0
102
{ACAD_REACTORS
330
492
330
493
102
}
330
74
100
AcDbEntity
  8
0
  6
Continuous
 62
     2
100
AcDbLine
 10
-67.09534291697923
 20
14.79057550861818
 30
0.0
 11
-67.09534291697923
 21
15.51166394399277
 31
0.0
  0
LINE
  5
2B1
102
{ACAD_REACTORS
330
492
330
493
102
}
330
74
100
AcDbEntity
  8
0
  6
Continuous
 62
     2
100
AcDbLine
 10
-67.09534291697923
 20
13.99737822970672
 30
0.0
 11
-67.09534291697923
 21
13.27628979433213
 31
0.0
  0
LINE
  5
2B2
102
{ACAD_REACTORS
330
494
330
495
102
}
330
74
100
AcDbEntity
  8
0
  6
Continuous
 62
     2
100
AcDbLine
 10
-54.42340561425988
 20
15.00690203923015
 30
0.0
 11
-53.5113070195755
 21
15.00690203923015
 31
0.0
  0
LINE
  5
2B3
102
{ACAD_REACTORS
330
494
330
495
102
}
330
74
100
AcDbEntity
  8
0
  6
Continuous
 62
     2
100
AcDbLine
 10
-53.78732516553146
 20
13.99737822970626
 30
0.0
 11
-53.78732516553146
 21
13.27628979433169
 31
0.0
  0
LINE
  5
2B4
102
{ACAD_REACTORS
330
49E
330
49F
102
}
330
74
100
AcDbEntity
  8
0
  6
Continuous
 62
     2
100
AcDbLine
 10
-55.32514055014292
 20
15.90826258343419
 30
0.0
 11
-54.16980745349804
 21
17.2147576196118
 31
0.0
  0
LINE
  5
2B5
102
{ACAD_REACTORS
330
49E
330
49F
102
}
330
74
100
AcDbEntity
  8
0
  6
Continuous
 62
     2
100
AcDbLine
 10
-55.24627822272737
 20
18.43207210724502
 30
0.0
 11
-54.16980745349804
 21
17.2147576196118
 31
0.0
  0
LINE
  5
2B6
102
{ACAD_REACTORS
330
49E
330
49F
102
}
330
74
100
AcDbEntity
  8
0
  6
Continuous
 62
     2
100
AcDbLine
 10
-53.09333668426962
 20
18.43207210724502
 30
0.0
 11
-51.93406047125541
 21
18.43207210724502
 31
0.0
  0
LINE
  5
2B7
102
{ACAD_REACTORS
330
49E
330
49F
102
}
330
74
100
AcDbEntity
  8
0
  6
Continuous
 62
     2
100
AcDbLine
 10
-54.16586433712791
 20
15.90826258343419
 30
0.0
 11
-53.59016934699093
 21
16.55928058780913
 31
0.0
  0
LINE
  5
2B8
102
{ACAD_REACTORS
330
49E
330
49F
102
}
330
74
100
AcDbEntity
  8
0
  6
Continuous
 62
     2
100
AcDbLine
 10
-54.16586433712791
 20
15.90826258343419
 30
0.0
 11
-55.32514055014292
 21
15.90826258343419
 31
0.0
  0
LINE
  5
2B9
102
{ACAD_REACTORS
330
4A0
330
4A1
102
}
330
74
100
AcDbEntity
  8
0
  6
Continuous
 62
     2
100
AcDbLine
 10
-55.42371845941307
 20
15.90826258343419
 30
0.0
 11
-56.44892871582044
 21
15.90826258343419
 31
0.0
  0
LINE
  5
2BA
102
{ACAD_REACTORS
330
4A2
330
4A3
102
}
330
74
100
AcDbEntity
  8
0
  6
Continuous
 62
     2
100
AcDbLine
 10
-57.16626723495688
 20
14.14159591678136
 30
0.0
 11
-57.41433767891567
 21
14.7761537399109
 31
0.0
  0
LINE
  5
2BB
102
{ACAD_REACTORS
330
4A2
330
4A3
102
}
330
74
100
AcDbEntity
  8
0
  6
Continuous
 62
     2
100
AcDbLine
 10
-57.66240812287629
 20
14.14159591678136
 30
0.0
 11
-57.16626723495688
 21
14.14159591678136
 31
0.0
  0
LINE
  5
2BC
102
{ACAD_REACTORS
330
4A2
330
4A3
102
}
330
74
100
AcDbEntity
  8
0
  6
Continuous
 62
     2
100
AcDbLine
 10
-59.08227590376373
 20
13.13207210725704
 30
0.0
 11
-58.05706564735635
 21
13.13207210725704
 31
0.0
  0
LINE
  5
2BD
102
{ACAD_REACTORS
330
4A2
330
4A3
102
}
330
74
100
AcDbEntity
  8
0
  6
Continuous
 62
     2
100
AcDbLine
 10
-57.92694280711976
 20
15.65588163106787
 30
0.0
 11
-56.9017325507125
 21
15.65588163106787
 31
0.0
  0
LINE
  5
2BE
102
{ACAD_REACTORS
330
4A2
330
4A3
102
}
330
74
100
AcDbEntity
  8
0
  6
Continuous
 62
     2
100
AcDbLine
 10
-56.9017325507125
 20
15.65588163106787
 30
0.0
 11
-55.74639945406761
 21
13.13207210725704
 31
0.0
  0
LINE
  5
2BF
102
{ACAD_REACTORS
330
4A2
330
4A3
102
}
330
74
100
AcDbEntity
  8
0
  6
Continuous
 62
     2
100
AcDbLine
 10
-56.77160971047579
 20
13.13207210725704
 30
0.0
 11
-56.9463866141748
 21
13.57914693718916
 31
0.0
  0
LINE
  5
2C0
102
{ACAD_REACTORS
330
4A4
330
4A5
102
}
330
74
100
AcDbEntity
  8
0
  6
Continuous
 62
     2
100
AcDbLine
 10
-60.19501400434854
 20
13.13207210725704
 30
0.0
 11
-59.20923491164899
 21
13.13207210725704
 31
0.0
  0
LINE
  5
2C1
102
{ACAD_REACTORS
330
4A4
330
4A5
102
}
330
74
100
AcDbEntity
  8
0
  6
Continuous
 62
     2
100
AcDbLine
 10
-60.19501400434854
 20
15.00690203923015
 30
0.0
 11
-60.19501400434854
 21
13.13207210725704
 31
0.0
  0
LINE
  5
2C2
102
{ACAD_REACTORS
330
4A4
330
4A5
102
}
330
74
100
AcDbEntity
  8
0
  6
Continuous
 62
     2
100
AcDbLine
 10
-60.86534378738543
 20
15.65588163106787
 30
0.0
 11
-60.86534378738543
 21
15.00690203923015
 31
0.0
  0
LINE
  5
2C3
102
{ACAD_REACTORS
330
4A6
330
4A7
102
}
330
74
100
AcDbEntity
  8
0
  6
Continuous
 62
     2
100
AcDbLine
 10
-59.64285297616834
 20
15.90826258343419
 30
0.0
 11
-58.6570738834688
 21
15.90826258343419
 31
0.0
  0
LINE
  5
2C4
102
{ACAD_REACTORS
330
4A6
330
4A7
102
}
330
74
100
AcDbEntity
  8
0
  6
Continuous
 62
     2
100
AcDbLine
 10
-57.63186362706051
 20
17.35043945418291
 30
0.0
 11
-58.6570738834688
 21
18.43207210724502
 31
0.0
  0
LINE
  5
2C5
102
{ACAD_REACTORS
330
4A6
330
4A7
102
}
330
74
100
AcDbEntity
  8
0
  6
Continuous
 62
     2
100
AcDbLine
 10
-56.64608453436085
 20
18.43207210724502
 30
0.0
 11
-57.63186362706051
 21
18.43207210724502
 31
0.0
  0
LINE
  5
2C6
102
{ACAD_REACTORS
330
4A6
330
4A7
102
}
330
74
100
AcDbEntity
  8
0
  6
Continuous
 62
     2
100
AcDbLine
 10
-56.64608453436085
 20
15.90826258343419
 30
0.0
 11
-56.64608453436085
 21
18.43207210724502
 31
0.0
  0
LINE
  5
2C7
102
{ACAD_REACTORS
330
4A6
330
4A7
102
}
330
74
100
AcDbEntity
  8
0
  6
Continuous
 62
     2
100
AcDbLine
 10
-57.63186362706051
 20
15.90826258343419
 30
0.0
 11
-56.64608453436085
 21
15.90826258343419
 31
0.0
  0
LINE
  5
2C8
102
{ACAD_REACTORS
330
4A6
330
4A7
102
}
330
74
100
AcDbEntity
  8
0
  6
Continuous
 62
     2
100
AcDbLine
 10
-58.6570738834688
 20
16.98989523649585
 30
0.0
 11
-57.63186362706051
 21
15.90826258343419
 31
0.0
  0
LINE
  5
2C9
102
{ACAD_REACTORS
330
4A8
330
4A9
102
}
330
74
100
AcDbEntity
  8
0
  6
Continuous
 62
     2
100
AcDbLine
 10
-61.96941637120904
 20
14.57424897800576
 30
0.0
 11
-62.99462662761641
 21
15.65588163106787
 31
0.0
  0
LINE
  5
2CA
102
{ACAD_REACTORS
330
4A8
330
4A9
102
}
330
74
100
AcDbEntity
  8
0
  6
Continuous
 62
     2
100
AcDbLine
 10
-61.96941637120904
 20
15.65588163106787
 30
0.0
 11
-61.96941637120904
 21
14.57424897800576
 31
0.0
  0
LINE
  5
2CB
102
{ACAD_REACTORS
330
4A8
330
4A9
102
}
330
74
100
AcDbEntity
  8
0
  6
Continuous
 62
     2
100
AcDbLine
 10
-60.98363727850949
 20
15.65588163106787
 30
0.0
 11
-61.96941637120904
 21
15.65588163106787
 31
0.0
  0
LINE
  5
2CC
102
{ACAD_REACTORS
330
4A8
330
4A9
102
}
330
74
100
AcDbEntity
  8
0
  6
Continuous
 62
     2
100
AcDbLine
 10
-60.98363727850949
 20
13.13207210725704
 30
0.0
 11
-60.98363727850949
 21
15.65588163106787
 31
0.0
  0
LINE
  5
2CD
102
{ACAD_REACTORS
330
4A8
330
4A9
102
}
330
74
100
AcDbEntity
  8
0
  6
Continuous
 62
     2
100
AcDbLine
 10
-62.99462662761641
 20
14.21370476031869
 30
0.0
 11
-61.96941637120904
 21
13.13207210725704
 31
0.0
  0
LINE
  5
2CE
102
{ACAD_REACTORS
330
4A8
330
4A9
102
}
330
74
100
AcDbEntity
  8
0
  6
Continuous
 62
     2
100
AcDbLine
 10
-62.99462662761641
 20
13.13207210725704
 30
0.0
 11
-62.99462662761641
 21
14.21370476031869
 31
0.0
  0
LINE
  5
2CF
102
{ACAD_REACTORS
330
498
330
499
102
}
330
74
100
AcDbEntity
  8
0
  6
Continuous
 62
     2
100
AcDbLine
 10
-60.94408137853247
 20
17.85520135894508
 30
0.0
 11
-59.84000879470796
 21
17.85520135894508
 31
0.0
  0
LINE
  5
2D0
102
{ACAD_REACTORS
330
498
330
499
102
}
330
74
100
AcDbEntity
  8
0
  6
Continuous
 62
     2
100
AcDbLine
 10
-60.94408137853247
 20
16.48513333173368
 30
0.0
 11
-60.94408137853247
 21
16.88173197118964
 31
0.0
  0
LINE
  5
2D1
102
{ACAD_REACTORS
330
498
330
499
102
}
330
74
100
AcDbEntity
  8
0
  6
Continuous
 62
     2
100
AcDbLine
 10
-59.84000879470796
 20
16.48513333173368
 30
0.0
 11
-60.94408137853247
 21
16.48513333173368
 31
0.0
  0
LINE
  5
2D2
102
{ACAD_REACTORS
330
498
330
499
102
}
330
74
100
AcDbEntity
  8
0
  6
Continuous
 62
     2
100
AcDbLine
 10
-59.84000879470796
 20
15.90826258343419
 30
0.0
 11
-59.84000879470796
 21
16.48513333173368
 31
0.0
  0
LINE
  5
2D3
102
{ACAD_REACTORS
330
498
330
499
102
}
330
74
100
AcDbEntity
  8
0
  6
Continuous
 62
     2
100
AcDbLine
 10
-62.44357881436167
 20
15.90826258343419
 30
0.0
 11
-59.84000879470796
 21
15.90826258343419
 31
0.0
  0
LINE
  5
2D4
102
{ACAD_REACTORS
330
498
330
499
102
}
330
74
100
AcDbEntity
  8
0
  6
Continuous
 62
     2
100
AcDbLine
 10
-62.44357881436167
 20
18.43207210724502
 30
0.0
 11
-59.84000879470796
 21
18.43207210724502
 31
0.0
  0
LINE
  5
2D5
102
{ACAD_REACTORS
330
498
330
499
102
}
330
74
100
AcDbEntity
  8
0
  6
Continuous
 62
     2
100
AcDbLine
 10
-59.84000879470796
 20
17.85520135894508
 30
0.0
 11
-59.84000879470796
 21
18.43207210724502
 31
0.0
  0
LINE
  5
2D6
102
{ACAD_REACTORS
330
4AA
330
4AB
102
}
330
74
100
AcDbEntity
  8
0
  6
Continuous
 62
     2
100
AcDbLine
 10
-64.80833542191544
 20
17.54873877391066
 30
0.0
 11
-64.80833542191544
 21
18.43207210724502
 31
0.0
  0
LINE
  5
2D7
102
{ACAD_REACTORS
330
4AA
330
4AB
102
}
330
74
100
AcDbEntity
  8
0
  6
Continuous
 62
     2
100
AcDbLine
 10
-64.80833542191544
 20
18.43207210724502
 30
0.0
 11
-63.8225563292159
 21
18.43207210724502
 31
0.0
  0
LINE
  5
2D8
102
{ACAD_REACTORS
330
4AA
330
4AB
102
}
330
74
100
AcDbEntity
  8
0
  6
Continuous
 62
     2
100
AcDbLine
 10
-64.80833542191544
 20
16.84567754942075
 30
0.0
 11
-65.67582102349184
 21
16.84567754942075
 31
0.0
  0
LINE
  5
2D9
102
{ACAD_REACTORS
330
4AA
330
4AB
102
}
330
74
100
AcDbEntity
  8
0
  6
Continuous
 62
     2
100
AcDbLine
 10
-65.67582102349184
 20
16.84567754942075
 30
0.0
 11
-65.67582102349184
 21
15.90826258343419
 31
0.0
  0
LINE
  5
2DA
102
{ACAD_REACTORS
330
4AA
330
4AB
102
}
330
74
100
AcDbEntity
  8
0
  6
Continuous
 62
     2
100
AcDbLine
 10
-66.6616001161915
 20
18.43207210724502
 30
0.0
 11
-66.6616001161915
 21
15.90826258343419
 31
0.0
  0
LINE
  5
2DB
102
{ACAD_REACTORS
330
49C
330
49D
102
}
330
74
100
AcDbEntity
  8
0
  6
Continuous
 62
     2
100
AcDbLine
 10
-68.2782778282193
 20
17.30080475618525
 30
0.0
 11
-68.2782778282193
 21
17.88405074737721
 31
0.0
  0
LINE
  5
2DC
102
{ACAD_REACTORS
330
49C
330
49D
102
}
330
74
100
AcDbEntity
  8
0
  6
Continuous
 62
     2
100
AcDbLine
 10
-69.30348808462759
 20
15.90826258343419
 30
0.0
 11
-68.2782778282193
 21
15.90826258343419
 31
0.0
  0
LINE
  5
2DD
102
{ACAD_REACTORS
330
49C
330
49D
102
}
330
74
100
AcDbEntity
  8
0
  6
Continuous
 62
     2
100
AcDbLine
 10
-68.2782778282193
 20
15.90826258343419
 30
0.0
 11
-68.2782778282193
 21
16.68766608851166
 31
0.0
  0
LINE
  5
2DE
102
{ACAD_REACTORS
330
496
330
497
102
}
330
74
100
AcDbEntity
  8
0
  6
Continuous
 62
     2
100
AcDbLine
 10
-72.86129457157926
 20
13.72096099614706
 30
0.0
 11
-74.0809914815045
 21
13.72096099614706
 31
0.0
  0
LINE
  5
2DF
102
{ACAD_REACTORS
330
496
330
497
102
}
330
74
100
AcDbEntity
  8
0
  6
Continuous
 62
     2
100
AcDbLine
 10
-74.92242891301635
 20
18.08145672261529
 30
0.0
 11
-74.92242891301635
 21
13.48268749187132
 31
0.0
  0
LINE
  5
2E0
102
{ACAD_REACTORS
330
496
330
497
102
}
330
74
100
AcDbEntity
  8
0
  6
Continuous
 62
     2
100
AcDbLine
 10
-74.57181352840246
 20
18.43207210723003
 30
0.0
 11
-70.04841510632241
 21
18.43207210723003
 31
0.0
  0
LINE
  5
2E1
102
{ACAD_REACTORS
330
496
330
497
102
}
330
74
100
AcDbEntity
  8
0
  6
Continuous
 62
     2
100
AcDbLine
 10
-69.69779972170761
 20
18.08145672261529
 30
0.0
 11
-69.69779972170761
 21
13.48268749187132
 31
0.0
  0
LINE
  5
2E2
102
{ACAD_REACTORS
330
496
330
497
102
}
330
74
100
AcDbEntity
  8
0
  6
Continuous
 62
     2
100
AcDbLine
 10
-70.04841510632241
 20
13.13207210725704
 30
0.0
 11
-74.57181352840246
 21
13.13207210725704
 31
0.0
  0
LINE
  5
2E3
102
{ACAD_REACTORS
330
496
330
497
102
}
330
74
100
AcDbEntity
  8
0
  6
Continuous
 62
     2
100
AcDbLine
 10
-72.60037149465643
 20
13.98188407306995
 30
0.0
 11
-72.60037149465643
 21
15.24698401648451
 31
0.0
  0
LINE
  5
2E4
102
{ACAD_REACTORS
330
496
330
497
102
}
330
74
100
AcDbEntity
  8
0
  6
Continuous
 62
     2
100
AcDbLine
 10
-72.60037149465643
 20
17.08306624138113
 30
0.0
 11
-72.60037149465643
 21
17.58226014143119
 31
0.0
  0
LINE
  5
2E5
102
{ACAD_REACTORS
330
496
330
497
102
}
330
74
100
AcDbEntity
  8
0
  6
Continuous
 62
     2
100
AcDbLine
 10
-74.0809914815045
 20
17.84318321835364
 30
0.0
 11
-72.86129457157926
 21
17.84318321835364
 31
0.0
  0
LINE
  5
2E6
102
{ACAD_REACTORS
330
496
330
497
102
}
330
74
100
AcDbEntity
  8
0
  6
Continuous
 62
     2
100
AcDbLine
 10
-74.34191455842654
 20
17.58226014143119
 30
0.0
 11
-74.34191455842654
 21
13.98188407306995
 31
0.0
  0
LINE
  5
2E7
102
{ACAD_REACTORS
330
49C
330
49D
102
}
330
74
100
AcDbEntity
  8
0
  6
Continuous
 62
     2
100
AcDbLine
 10
-68.2782778282193
 20
16.68766608851166
 30
0.0
 11
-67.65119717716118
 21
16.68766608851166
 31
0.0
  0
LINE
  5
2E8
102
{ACAD_REACTORS
330
49C
330
49D
102
}
330
74
100
AcDbEntity
  8
0
  6
Continuous
 62
     2
100
AcDbLine
 10
-69.30348808462759
 20
18.43207210724502
 30
0.0
 11
-67.65119717716118
 21
18.43207210724502
 31
0.0
  0
LINE
  5
2E9
102
{ACAD_REACTORS
330
49C
330
49D
102
}
330
74
100
AcDbEntity
  8
0
  6
Continuous
 62
     2
100
AcDbLine
 10
-69.30348808462759
 20
18.43207210724502
 30
0.0
 11
-69.30348808462759
 21
15.90826258343419
 31
0.0
  0
LINE
  5
2EA
102
{ACAD_REACTORS
330
49C
330
49D
102
}
330
74
100
AcDbEntity
  8
0
  6
Continuous
 62
     2
100
AcDbLine
 10
-68.2782778282193
 20
17.30080475618525
 30
0.0
 11
-68.01605050463093
 21
17.30080475618525
 31
0.0
  0
LINE
  5
2EB
102
{ACAD_REACTORS
330
49C
330
49D
102
}
330
74
100
AcDbEntity
  8
0
  6
Continuous
 62
     2
100
AcDbLine
 10
-68.2782778282193
 20
17.88405074737721
 30
0.0
 11
-68.01605050463093
 21
17.88405074737721
 31
0.0
  0
LINE
  5
2EC
102
{ACAD_REACTORS
330
4AA
330
4AB
102
}
330
74
100
AcDbEntity
  8
0
  6
Continuous
 62
     2
100
AcDbLine
 10
-65.67582102349184
 20
17.54873877391066
 30
0.0
 11
-64.80833542191544
 21
17.54873877391066
 31
0.0
  0
LINE
  5
2ED
102
{ACAD_REACTORS
330
4AA
330
4AB
102
}
330
74
100
AcDbEntity
  8
0
  6
Continuous
 62
     2
100
AcDbLine
 10
-65.67582102349184
 20
18.43207210724502
 30
0.0
 11
-65.67582102349184
 21
17.54873877391066
 31
0.0
  0
LINE
  5
2EE
102
{ACAD_REACTORS
330
4AA
330
4AB
102
}
330
74
100
AcDbEntity
  8
0
  6
Continuous
 62
     2
100
AcDbLine
 10
-66.6616001161915
 20
18.43207210724502
 30
0.0
 11
-65.67582102349184
 21
18.43207210724502
 31
0.0
  0
LINE
  5
2EF
102
{ACAD_REACTORS
330
4AA
330
4AB
102
}
330
74
100
AcDbEntity
  8
0
  6
Continuous
 62
     2
100
AcDbLine
 10
-65.67582102349184
 20
15.90826258343419
 30
0.0
 11
-66.6616001161915
 21
15.90826258343419
 31
0.0
  0
LINE
  5
2F0
102
{ACAD_REACTORS
330
4AA
330
4AB
102
}
330
74
100
AcDbEntity
  8
0
  6
Continuous
 62
     2
100
AcDbLine
 10
-64.80833542191544
 20
15.90826258343419
 30
0.0
 11
-64.80833542191544
 21
16.84567754942075
 31
0.0
  0
LINE
  5
2F1
102
{ACAD_REACTORS
330
4AA
330
4AB
102
}
330
74
100
AcDbEntity
  8
0
  6
Continuous
 62
     2
100
AcDbLine
 10
-63.8225563292159
 20
15.90826258343419
 30
0.0
 11
-64.80833542191544
 21
15.90826258343419
 31
0.0
  0
LINE
  5
2F2
102
{ACAD_REACTORS
330
4AA
330
4AB
102
}
330
74
100
AcDbEntity
  8
0
  6
Continuous
 62
     2
100
AcDbLine
 10
-63.8225563292159
 20
18.43207210724502
 30
0.0
 11
-63.8225563292159
 21
15.90826258343419
 31
0.0
  0
LINE
  5
2F3
102
{ACAD_REACTORS
330
498
330
499
102
}
330
74
100
AcDbEntity
  8
0
  6
Continuous
 62
     2
100
AcDbLine
 10
-60.94408137853247
 20
16.88173197118964
 30
0.0
 11
-59.84000879470796
 21
16.88173197118964
 31
0.0
  0
LINE
  5
2F4
102
{ACAD_REACTORS
330
498
330
499
102
}
330
74
100
AcDbEntity
  8
0
  6
Continuous
 62
     2
100
AcDbLine
 10
-59.84000879470796
 20
16.88173197118964
 30
0.0
 11
-59.84000879470796
 21
17.45860271948912
 31
0.0
  0
LINE
  5
2F5
102
{ACAD_REACTORS
330
498
330
499
102
}
330
74
100
AcDbEntity
  8
0
  6
Continuous
 62
     2
100
AcDbLine
 10
-59.84000879470796
 20
17.45860271948912
 30
0.0
 11
-60.94408137853247
 21
17.45860271948912
 31
0.0
  0
LINE
  5
2F6
102
{ACAD_REACTORS
330
498
330
499
102
}
330
74
100
AcDbEntity
  8
0
  6
Continuous
 62
     2
100
AcDbLine
 10
-60.94408137853247
 20
17.45860271948912
 30
0.0
 11
-60.94408137853247
 21
17.85520135894508
 31
0.0
  0
LINE
  5
2F7
102
{ACAD_REACTORS
330
4A8
330
4A9
102
}
330
74
100
AcDbEntity
  8
0
  6
Continuous
 62
     2
100
AcDbLine
 10
-63.98040572031687
 20
13.13207210725704
 30
0.0
 11
-62.99462662761641
 21
13.13207210725704
 31
0.0
  0
LINE
  5
2F8
102
{ACAD_REACTORS
330
4A8
330
4A9
102
}
330
74
100
AcDbEntity
  8
0
  6
Continuous
 62
     2
100
AcDbLine
 10
-61.96941637120904
 20
13.13207210725704
 30
0.0
 11
-60.98363727850949
 21
13.13207210725704
 31
0.0
  0
LINE
  5
2F9
102
{ACAD_REACTORS
330
4A8
330
4A9
102
}
330
74
100
AcDbEntity
  8
0
  6
Continuous
 62
     2
100
AcDbLine
 10
-62.99462662761641
 20
15.65588163106787
 30
0.0
 11
-63.98040572031687
 21
15.65588163106787
 31
0.0
  0
LINE
  5
2FA
102
{ACAD_REACTORS
330
4A8
330
4A9
102
}
330
74
100
AcDbEntity
  8
0
  6
Continuous
 62
     2
100
AcDbLine
 10
-63.98040572031687
 20
15.65588163106787
 30
0.0
 11
-63.98040572031687
 21
13.13207210725704
 31
0.0
  0
LINE
  5
2FB
102
{ACAD_REACTORS
330
4A6
330
4A7
102
}
330
74
100
AcDbEntity
  8
0
  6
Continuous
 62
     2
100
AcDbLine
 10
-57.63186362706051
 20
18.43207210724502
 30
0.0
 11
-57.63186362706051
 21
17.35043945418291
 31
0.0
  0
LINE
  5
2FC
102
{ACAD_REACTORS
330
4A6
330
4A7
102
}
330
74
100
AcDbEntity
  8
0
  6
Continuous
 62
     2
100
AcDbLine
 10
-58.6570738834688
 20
18.43207210724502
 30
0.0
 11
-59.64285297616834
 21
18.43207210724502
 31
0.0
  0
LINE
  5
2FD
102
{ACAD_REACTORS
330
4A6
330
4A7
102
}
330
74
100
AcDbEntity
  8
0
  6
Continuous
 62
     2
100
AcDbLine
 10
-59.64285297616834
 20
18.43207210724502
 30
0.0
 11
-59.64285297616834
 21
15.90826258343419
 31
0.0
  0
LINE
  5
2FE
102
{ACAD_REACTORS
330
4A6
330
4A7
102
}
330
74
100
AcDbEntity
  8
0
  6
Continuous
 62
     2
100
AcDbLine
 10
-58.6570738834688
 20
15.90826258343419
 30
0.0
 11
-58.6570738834688
 21
16.98989523649585
 31
0.0
  0
LINE
  5
2FF
102
{ACAD_REACTORS
330
4A4
330
4A5
102
}
330
74
100
AcDbEntity
  8
0
  6
Continuous
 62
     2
100
AcDbLine
 10
-59.20923491164899
 20
13.13207210725704
 30
0.0
 11
-59.20923491164899
 21
15.00690203923015
 31
0.0
  0
LINE
  5
300
102
{ACAD_REACTORS
330
4A4
330
4A5
102
}
330
74
100
AcDbEntity
  8
0
  6
Continuous
 62
     2
100
AcDbLine
 10
-59.20923491164899
 20
15.00690203923015
 30
0.0
 11
-58.53890512861381
 21
15.00690203923015
 31
0.0
  0
LINE
  5
301
102
{ACAD_REACTORS
330
4A4
330
4A5
102
}
330
74
100
AcDbEntity
  8
0
  6
Continuous
 62
     2
100
AcDbLine
 10
-58.53890512861381
 20
15.00690203923015
 30
0.0
 11
-58.53890512861381
 21
15.65588163106787
 31
0.0
  0
LINE
  5
302
102
{ACAD_REACTORS
330
4A4
330
4A5
102
}
330
74
100
AcDbEntity
  8
0
  6
Continuous
 62
     2
100
AcDbLine
 10
-58.53890512861381
 20
15.65588163106787
 30
0.0
 11
-60.86534378738543
 21
15.65588163106787
 31
0.0
  0
LINE
  5
303
102
{ACAD_REACTORS
330
4A4
330
4A5
102
}
330
74
100
AcDbEntity
  8
0
  6
Continuous
 62
     2
100
AcDbLine
 10
-60.86534378738543
 20
15.00690203923015
 30
0.0
 11
-60.19501400434854
 21
15.00690203923015
 31
0.0
  0
LINE
  5
304
102
{ACAD_REACTORS
330
4A2
330
4A3
102
}
330
74
100
AcDbEntity
  8
0
  6
Continuous
 62
     2
100
AcDbLine
 10
-57.88228874365734
 20
13.57914693718916
 30
0.0
 11
-56.9463866141748
 21
13.57914693718916
 31
0.0
  0
LINE
  5
305
102
{ACAD_REACTORS
330
4A2
330
4A3
102
}
330
74
100
AcDbEntity
  8
0
  6
Continuous
 62
     2
100
AcDbLine
 10
-55.74639945406761
 20
13.13207210725704
 30
0.0
 11
-56.77160971047579
 21
13.13207210725704
 31
0.0
  0
LINE
  5
306
102
{ACAD_REACTORS
330
4A2
330
4A3
102
}
330
74
100
AcDbEntity
  8
0
  6
Continuous
 62
     2
100
AcDbLine
 10
-57.92694280711976
 20
15.65588163106787
 30
0.0
 11
-59.08227590376373
 21
13.13207210725704
 31
0.0
  0
LINE
  5
307
102
{ACAD_REACTORS
330
4A2
330
4A3
102
}
330
74
100
AcDbEntity
  8
0
  6
Continuous
 62
     2
100
AcDbLine
 10
-58.05706564735635
 20
13.13207210725704
 30
0.0
 11
-57.88228874365734
 21
13.57914693718916
 31
0.0
  0
LINE
  5
308
102
{ACAD_REACTORS
330
4A2
330
4A3
102
}
330
74
100
AcDbEntity
  8
0
  6
Continuous
 62
     2
100
AcDbLine
 10
-57.66240812287629
 20
14.14159591678136
 30
0.0
 11
-57.41433767891567
 21
14.7761537399109
 31
0.0
  0
LINE
  5
309
102
{ACAD_REACTORS
330
4A0
330
4A1
102
}
330
74
100
AcDbEntity
  8
0
  6
Continuous
 62
     2
100
AcDbLine
 10
-56.44892871582044
 20
15.90826258343419
 30
0.0
 11
-56.44892871582044
 21
18.43207210724502
 31
0.0
  0
LINE
  5
30A
102
{ACAD_REACTORS
330
4A0
330
4A1
102
}
330
74
100
AcDbEntity
  8
0
  6
Continuous
 62
     2
100
AcDbLine
 10
-55.42371845941307
 20
18.43207210724502
 30
0.0
 11
-55.42371845941307
 21
15.90826258343419
 31
0.0
  0
LINE
  5
30B
102
{ACAD_REACTORS
330
4A0
330
4A1
102
}
330
74
100
AcDbEntity
  8
0
  6
Continuous
 62
     2
100
AcDbLine
 10
-56.44892871582044
 20
18.43207210724502
 30
0.0
 11
-55.42371845941307
 21
18.43207210724502
 31
0.0
  0
LINE
  5
30C
102
{ACAD_REACTORS
330
49E
330
49F
102
}
330
74
100
AcDbEntity
  8
0
  6
Continuous
 62
     2
100
AcDbLine
 10
-53.59016934699093
 20
16.55928058780913
 30
0.0
 11
-53.01447435685418
 21
15.90826258343419
 31
0.0
  0
LINE
  5
30D
102
{ACAD_REACTORS
330
49E
330
49F
102
}
330
74
100
AcDbEntity
  8
0
  6
Continuous
 62
     2
100
AcDbLine
 10
-53.01447435685418
 20
15.90826258343419
 30
0.0
 11
-51.85519814383906
 21
15.90826258343419
 31
0.0
  0
LINE
  5
30E
102
{ACAD_REACTORS
330
49E
330
49F
102
}
330
74
100
AcDbEntity
  8
0
  6
Continuous
 62
     2
100
AcDbLine
 10
-53.01053124048394
 20
17.2147576196118
 30
0.0
 11
-51.85519814383906
 21
15.90826258343419
 31
0.0
  0
LINE
  5
30F
102
{ACAD_REACTORS
330
49E
330
49F
102
}
330
74
100
AcDbEntity
  8
0
  6
Continuous
 62
     2
100
AcDbLine
 10
-53.01053124048394
 20
17.2147576196118
 30
0.0
 11
-51.93406047125541
 21
18.43207210724502
 31
0.0
  0
LINE
  5
310
102
{ACAD_REACTORS
330
49E
330
49F
102
}
330
74
100
AcDbEntity
  8
0
  6
Continuous
 62
     2
100
AcDbLine
 10
-53.59016934699093
 20
17.87023465141403
 30
0.0
 11
-53.09333668426962
 21
18.43207210724502
 31
0.0
  0
LINE
  5
311
102
{ACAD_REACTORS
330
49E
330
49F
102
}
330
74
100
AcDbEntity
  8
0
  6
Continuous
 62
     2
100
AcDbLine
 10
-54.08700200971146
 20
18.43207210724502
 30
0.0
 11
-53.59016934699093
 21
17.87023465141403
 31
0.0
  0
LINE
  5
312
102
{ACAD_REACTORS
330
49E
330
49F
102
}
330
74
100
AcDbEntity
  8
0
  6
Continuous
 62
     2
100
AcDbLine
 10
-54.08700200971146
 20
18.43207210724502
 30
0.0
 11
-55.24627822272737
 21
18.43207210724502
 31
0.0
  0
LINE
  5
313
102
{ACAD_REACTORS
330
494
330
495
102
}
330
74
100
AcDbEntity
  8
0
  6
Continuous
 62
     2
100
AcDbLine
 10
-53.5113070195755
 20
13.13207210725704
 30
0.0
 11
-52.52552792687493
 21
13.13207210725704
 31
0.0
  0
LINE
  5
314
102
{ACAD_REACTORS
330
494
330
495
102
}
330
74
100
AcDbEntity
  8
0
  6
Continuous
 62
     2
100
AcDbLine
 10
-52.52552792687493
 20
13.13207210725704
 30
0.0
 11
-52.52552792687493
 21
15.00690203923015
 31
0.0
  0
LINE
  5
315
102
{ACAD_REACTORS
330
494
330
495
102
}
330
74
100
AcDbEntity
  8
0
  6
Continuous
 62
     2
100
AcDbLine
 10
-52.52552792687493
 20
15.00690203923015
 30
0.0
 11
-51.85519814383906
 21
15.00690203923015
 31
0.0
  0
LINE
  5
316
102
{ACAD_REACTORS
330
494
330
495
102
}
330
74
100
AcDbEntity
  8
0
  6
Continuous
 62
     2
100
AcDbLine
 10
-51.85519814383906
 20
15.00690203923015
 30
0.0
 11
-51.85519814383906
 21
15.65588163106787
 31
0.0
  0
LINE
  5
317
102
{ACAD_REACTORS
330
494
330
495
102
}
330
74
100
AcDbEntity
  8
0
  6
Continuous
 62
     2
100
AcDbLine
 10
-54.65267377906935
 20
15.65588163106741
 30
0.0
 11
-51.85519814383906
 21
15.65588163106787
 31
0.0
  0
LINE
  5
318
102
{ACAD_REACTORS
330
494
330
495
102
}
330
74
100
AcDbEntity
  8
0
  6
Continuous
 62
     2
100
AcDbLine
 10
-53.5113070195755
 20
15.00690203923015
 30
0.0
 11
-53.5113070195755
 21
13.13207210725704
 31
0.0
  0
LINE
  5
319
102
{ACAD_REACTORS
330
496
330
497
102
}
330
74
100
AcDbEntity
  8
0
  6
Continuous
 62
     2
100
AcDbLine
 10
-72.21336192493015
 20
14.76751024739299
 30
0.0
 11
-72.21336192493015
 21
15.24837917854596
 31
0.0
  0
LINE
  5
31A
102
{ACAD_REACTORS
330
496
330
497
102
}
330
74
100
AcDbEntity
  8
0
  6
Continuous
 62
     2
100
AcDbLine
 10
-72.21336192493015
 20
17.08167107931967
 30
0.0
 11
-72.21336192493015
 21
17.58211346651534
 31
0.0
  0
LINE
  5
31B
330
74
100
AcDbEntity
  8
1
  6
Continuous
 62
     7
100
AcDbLine
 10
-15.53766974705952
 20
24.28207210725108
 30
0.0
 11
-15.53766974705952
 21
28.53207210725106
 31
0.0
  0
LINE
  5
31C
330
74
100
AcDbEntity
  8
1
  6
Continuous
 62
     6
100
AcDbLine
 10
-95.53766974706191
 20
7.28207210725119
 30
0.0
 11
-95.08247427381191
 21
7.28207210725108
 31
0.0
  0
LINE
  5
31D
330
74
100
AcDbEntity
  8
1
  6
Continuous
 62
     6
100
AcDbLine
 10
-145.537669747062
 20
7.28207210725119
 30
0.0
 11
-184.337669747062
 21
7.28207210725119
 31
0.0
  0
LINE
  5
31E
330
74
100
AcDbEntity
  8
1
  6
Continuous
 62
     6
100
AcDbLine
 10
-195.5376697470619
 20
7.28207210725119
 30
0.0
 11
-184.337669747062
 21
7.28207210725119
 31
0.0
  0
LINE
  5
31F
330
74
100
AcDbEntity
  8
1
  6
Continuous
 62
     6
100
AcDbLine
 10
4.46233025293811
 20
7.28207210725119
 30
0.0
 11
47.9623302529381
 21
7.28207210725119
 31
0.0
  0
LINE
  5
320
330
74
100
AcDbEntity
  8
1
  6
Continuous
 62
     6
100
AcDbLine
 10
-45.5376697470619
 20
7.28207210725119
 30
0.0
 11
-63.38247427381194
 21
7.28207210725119
 31
0.0
  0
LINE
  5
321
330
74
100
AcDbEntity
  8
1
  6
PHANTOM
 62
     2
100
AcDbLine
 10
-73.46321105901154
 20
22.15707210725108
 30
0.0
 11
-69.14761608982253
 21
22.15707210725108
 31
0.0
  0
LINE
  5
322
330
74
100
AcDbEntity
  8
1
  6
PHANTOM
 62
     2
100
AcDbLine
 10
-76.49021444870854
 20
23.80707210725111
 30
0.0
 11
-76.49021444870854
 21
20.5070721072511
 31
0.0
  0
LINE
  5
323
330
74
100
AcDbEntity
  8
1
  6
PHANTOM
 62
     2
100
AcDbLine
 10
-74.84021444870854
 20
22.15707210725108
 30
0.0
 11
-78.14021444870853
 21
22.15707210725108
 31
0.0
  0
LINE
  5
324
330
74
100
AcDbEntity
  8
1
  6
Continuous
 62
     2
100
AcDbLine
 10
47.9623302529381
 20
7.28207210725119
 30
0.0
 11
52.96233025293711
 21
7.28207210725119
 31
0.0
  0
LINE
  5
325
330
74
100
AcDbEntity
  8
1
  6
Continuous
 62
     2
100
AcDbLine
 10
47.9623302529381
 20
7.28207210725119
 30
0.0
 11
47.9623302529381
 21
2.28207210725108
 31
0.0
  0
LINE
  5
326
330
74
100
AcDbEntity
  8
1
  6
Continuous
 62
     7
100
AcDbLine
 10
-45.18247427381191
 20
20.03207210725108
 30
0.0
 11
-45.18247427381191
 21
24.28207210725108
 31
0.0
  0
LINE
  5
327
330
74
100
AcDbEntity
  8
1
  6
Continuous
 62
     7
100
AcDbLine
 10
-81.58247427381181
 20
20.03207210725108
 30
0.0
 11
-45.18247427381191
 21
20.03207210725108
 31
0.0
  0
LINE
  5
328
330
74
100
AcDbEntity
  8
1
  6
Continuous
 62
     2
100
AcDbLine
 10
52.96233025293711
 20
2.28207210725108
 30
0.0
 11
52.96233025293711
 21
7.28207210725119
 31
0.0
  0
LINE
  5
329
330
74
100
AcDbEntity
  8
1
  6
Continuous
 62
     2
100
AcDbLine
 10
52.96233025293711
 20
2.28207210725108
 30
0.0
 11
47.9623302529381
 21
2.28207210725108
 31
0.0
  0
LINE
  5
32A
330
74
100
AcDbEntity
  8
1
  6
Continuous
 62
     2
100
AcDbLine
 10
47.9623302529381
 20
2.28207210725108
 30
0.0
 11
4.46233025293811
 21
2.28207210725108
 31
0.0
  0
LINE
  5
32B
330
74
100
AcDbEntity
  8
1
  6
Continuous
 62
     6
100
AcDbLine
 10
47.96233025293981
 20
37.03207210725108
 30
0.0
 11
47.96233025293901
 21
57.28207210725119
 31
0.0
  0
LINE
  5
32C
330
74
100
AcDbEntity
  8
1
  6
Continuous
 62
     2
100
AcDbLine
 10
52.96233025293711
 20
212.2820721072511
 30
0.0
 11
-95.53766974706191
 21
212.2820721072511
 31
0.0
  0
LINE
  5
32D
330
74
100
AcDbEntity
  8
1
  6
Continuous
 62
     6
100
AcDbLine
 10
47.96233025293711
 20
192.2820721072511
 30
0.0
 11
-239.037669747061
 21
192.2820721072511
 31
0.0
  0
LINE
  5
32E
330
74
100
AcDbEntity
  8
1
  6
Continuous
 62
     2
100
AcDbLine
 10
47.96233025293901
 20
57.28207210725119
 30
0.0
 11
52.96233025293711
 21
57.28207210725119
 31
0.0
  0
LINE
  5
32F
330
74
100
AcDbEntity
  8
1
  6
Continuous
 62
     6
100
AcDbLine
 10
47.96233025293901
 20
57.28207210725119
 30
0.0
 11
47.9623302529385
 21
107.282072107251
 31
0.0
  0
LINE
  5
330
330
74
100
AcDbEntity
  8
1
  6
Continuous
 62
     2
100
AcDbLine
 10
52.96233025293711
 20
57.28207210725119
 30
0.0
 11
52.96233025293711
 21
107.282072107251
 31
0.0
  0
LINE
  5
331
330
74
100
AcDbEntity
  8
1
  6
Continuous
 62
     2
100
AcDbLine
 10
47.9623302529385
 20
107.282072107251
 30
0.0
 11
52.96233025293711
 21
107.282072107251
 31
0.0
  0
LINE
  5
332
330
74
100
AcDbEntity
  8
1
  6
Continuous
 62
     6
100
AcDbLine
 10
47.9623302529385
 20
107.282072107251
 30
0.0
 11
47.96233025293739
 21
157.2820721072511
 31
0.0
  0
LINE
  5
333
330
74
100
AcDbEntity
  8
1
  6
Continuous
 62
     2
100
AcDbLine
 10
52.96233025293711
 20
107.282072107251
 30
0.0
 11
52.96233025293711
 21
157.2820721072511
 31
0.0
  0
LINE
  5
334
330
74
100
AcDbEntity
  8
1
  6
Continuous
 62
     2
100
AcDbLine
 10
47.96233025293739
 20
157.2820721072511
 30
0.0
 11
52.96233025293711
 21
157.2820721072511
 31
0.0
  0
LINE
  5
335
330
74
100
AcDbEntity
  8
1
  6
Continuous
 62
     6
100
AcDbLine
 10
47.96233025293739
 20
157.2820721072511
 30
0.0
 11
47.96233025293711
 21
192.2820721072511
 31
0.0
  0
LINE
  5
336
330
74
100
AcDbEntity
  8
1
  6
Continuous
 62
     2
100
AcDbLine
 10
52.96233025293711
 20
157.2820721072511
 30
0.0
 11
52.96233025293711
 21
212.2820721072511
 31
0.0
  0
LINE
  5
337
330
74
100
AcDbEntity
  8
1
  6
Continuous
 62
     2
100
AcDbLine
 10
52.96233025293711
 20
7.28207210725119
 30
0.0
 11
52.96233025293711
 21
57.28207210725119
 31
0.0
  0
LINE
  5
338
330
74
100
AcDbEntity
  8
1
  6
Continuous
 62
     2
100
AcDbLine
 10
-95.53766974706191
 20
212.2820721072511
 30
0.0
 11
-244.037669747061
 21
212.2820721072511
 31
0.0
  0
LINE
  5
339
330
74
100
AcDbEntity
  8
1
  6
Continuous
 62
     2
100
AcDbLine
 10
-95.53766974706191
 20
212.2820721072511
 30
0.0
 11
-95.53766974706191
 21
203.0733802625498
 31
0.0
  0
LINE
  5
33A
330
74
100
AcDbEntity
  8
1
  6
Continuous
 62
     2
100
AcDbLine
 10
-244.037669747061
 20
2.28207210725108
 30
0.0
 11
-239.0376697470599
 21
2.28207210725108
 31
0.0
  0
LINE
  5
33B
330
74
100
AcDbEntity
  8
1
  6
Continuous
 62
     2
100
AcDbLine
 10
-244.037669747061
 20
212.2820721072511
 30
0.0
 11
-244.037669747061
 21
157.2820721072511
 31
0.0
  0
LINE
  5
33C
330
74
100
AcDbEntity
  8
1
  6
Continuous
 62
     6
100
AcDbLine
 10
-239.037669747061
 20
192.2820721072511
 30
0.0
 11
-239.0376697470608
 21
157.2820721072511
 31
0.0
  0
LINE
  5
33D
330
74
100
AcDbEntity
  8
1
  6
Continuous
 62
     2
100
AcDbLine
 10
-244.037669747061
 20
157.2820721072511
 30
0.0
 11
-239.0376697470608
 21
157.2820721072511
 31
0.0
  0
LINE
  5
33E
330
74
100
AcDbEntity
  8
1
  6
Continuous
 62
     2
100
AcDbLine
 10
-244.037669747061
 20
157.2820721072511
 30
0.0
 11
-244.037669747061
 21
107.282072107251
 31
0.0
  0
LINE
  5
33F
330
74
100
AcDbEntity
  8
1
  6
Continuous
 62
     6
100
AcDbLine
 10
-239.0376697470608
 20
157.2820721072511
 30
0.0
 11
-239.0376697470604
 21
107.282072107251
 31
0.0
  0
LINE
  5
340
330
74
100
AcDbEntity
  8
1
  6
Continuous
 62
     2
100
AcDbLine
 10
-244.037669747061
 20
107.282072107251
 30
0.0
 11
-239.0376697470604
 21
107.282072107251
 31
0.0
  0
LINE
  5
341
330
74
100
AcDbEntity
  8
1
  6
Continuous
 62
     2
100
AcDbLine
 10
-244.037669747061
 20
107.282072107251
 30
0.0
 11
-244.037669747061
 21
57.28207210725119
 31
0.0
  0
LINE
  5
342
330
74
100
AcDbEntity
  8
1
  6
Continuous
 62
     6
100
AcDbLine
 10
-239.0376697470604
 20
107.282072107251
 30
0.0
 11
-239.0376697470601
 21
57.28207210725119
 31
0.0
  0
LINE
  5
343
330
74
100
AcDbEntity
  8
1
  6
Continuous
 62
     2
100
AcDbLine
 10
-244.037669747061
 20
57.28207210725119
 30
0.0
 11
-239.0376697470601
 21
57.28207210725119
 31
0.0
  0
LINE
  5
344
330
74
100
AcDbEntity
  8
1
  6
Continuous
 62
     2
100
AcDbLine
 10
-244.037669747061
 20
57.28207210725119
 30
0.0
 11
-244.037669747061
 21
7.28207210725119
 31
0.0
  0
LINE
  5
345
330
74
100
AcDbEntity
  8
1
  6
Continuous
 62
     6
100
AcDbLine
 10
-239.0376697470601
 20
57.28207210725119
 30
0.0
 11
-239.0376697470599
 21
7.28207210725119
 31
0.0
  0
LINE
  5
346
330
74
100
AcDbEntity
  8
1
  6
Continuous
 62
     2
100
AcDbLine
 10
-195.5376697470619
 20
2.28207210725108
 30
0.0
 11
-195.5376697470619
 21
7.28207210725119
 31
0.0
  0
LINE
  5
347
330
74
100
AcDbEntity
  8
1
  6
Continuous
 62
     2
100
AcDbLine
 10
-195.5376697470619
 20
2.28207210725108
 30
0.0
 11
-145.537669747062
 21
2.28207210725108
 31
0.0
  0
LINE
  5
348
330
74
100
AcDbEntity
  8
1
  6
Continuous
 62
     2
100
AcDbLine
 10
-145.537669747062
 20
2.28207210725108
 30
0.0
 11
-145.537669747062
 21
7.28207210725119
 31
0.0
  0
LINE
  5
349
330
74
100
AcDbEntity
  8
1
  6
Continuous
 62
     2
100
AcDbLine
 10
-145.537669747062
 20
2.28207210725108
 30
0.0
 11
-95.53766974706191
 21
2.28207210725108
 31
0.0
  0
LINE
  5
34A
330
74
100
AcDbEntity
  8
1
  6
Continuous
 62
     2
100
AcDbLine
 10
-95.53766974706191
 20
2.28207210725108
 30
0.0
 11
-95.53766974706191
 21
7.28207210725119
 31
0.0
  0
LINE
  5
34B
330
74
100
AcDbEntity
  8
1
  6
Continuous
 62
     2
100
AcDbLine
 10
-95.53766974706191
 20
2.28207210725108
 30
0.0
 11
-45.5376697470619
 21
2.28207210725108
 31
0.0
  0
LINE
  5
34C
330
74
100
AcDbEntity
  8
1
  6
Continuous
 62
     2
100
AcDbLine
 10
-45.5376697470619
 20
2.28207210725108
 30
0.0
 11
-45.5376697470619
 21
7.28207210725119
 31
0.0
  0
LINE
  5
34D
330
74
100
AcDbEntity
  8
1
  6
Continuous
 62
     2
100
AcDbLine
 10
4.46233025293811
 20
2.28207210725108
 30
0.0
 11
4.46233025293811
 21
7.28207210725119
 31
0.0
  0
LINE
  5
34E
330
74
100
AcDbEntity
  8
1
  6
Continuous
 62
     2
100
AcDbLine
 10
4.46233025293811
 20
2.28207210725108
 30
0.0
 11
-45.5376697470619
 21
2.28207210725108
 31
0.0
  0
LINE
  5
34F
330
74
100
AcDbEntity
  8
1
  6
Continuous
 62
     2
100
AcDbLine
 10
-239.0376697470599
 20
7.28207210725119
 30
0.0
 11
-239.0376697470599
 21
2.28207210725108
 31
0.0
  0
LINE
  5
350
330
74
100
AcDbEntity
  8
1
  6
Continuous
 62
     2
100
AcDbLine
 10
-239.0376697470599
 20
2.28207210725108
 30
0.0
 11
-195.5376697470619
 21
2.28207210725108
 31
0.0
  0
LINE
  5
351
330
74
100
AcDbEntity
  8
1
  6
Continuous
 62
     2
100
AcDbLine
 10
-239.0376697470599
 20
7.28207210725119
 30
0.0
 11
-244.037669747061
 21
7.28207210725119
 31
0.0
  0
LINE
  5
352
330
74
100
AcDbEntity
  8
1
  6
Continuous
 62
     2
100
AcDbLine
 10
-244.037669747061
 20
7.28207210725119
 30
0.0
 11
-244.037669747061
 21
2.28207210725108
 31
0.0
  0
LINE
  5
353
330
74
100
AcDbEntity
  8
1
  6
Continuous
 62
     7
100
AcDbLine
 10
-184.337669747062
 20
11.53207210725119
 30
0.0
 11
-122.0824742738118
 21
11.53207210725119
 31
0.0
  0
LINE
  5
354
330
74
100
AcDbEntity
  8
1
  6
Continuous
 62
     2
100
AcDbLine
 10
-184.337669747062
 20
11.53207210725119
 30
0.0
 11
-184.337669747062
 21
7.28207210725119
 31
0.0
  0
LINE
  5
355
330
74
100
AcDbEntity
  8
1
  6
Continuous
 62
     2
100
AcDbLine
 10
-184.337669747062
 20
15.78207210725108
 30
0.0
 11
-197.837669747062
 21
15.78207210725108
 31
0.0
  0
LINE
  5
356
330
74
100
AcDbEntity
  8
1
  6
Continuous
 62
     2
100
AcDbLine
 10
-184.337669747062
 20
15.78207210725108
 30
0.0
 11
-184.337669747062
 21
11.53207210725119
 31
0.0
  0
LINE
  5
357
330
74
100
AcDbEntity
  8
1
  6
Continuous
 62
     2
100
AcDbLine
 10
-184.337669747062
 20
24.28207210725108
 30
0.0
 11
-197.837669747062
 21
24.28207210725108
 31
0.0
  0
LINE
  5
358
330
74
100
AcDbEntity
  8
1
  6
Continuous
 62
     2
100
AcDbLine
 10
-184.337669747062
 20
24.28207210725108
 30
0.0
 11
-184.337669747062
 21
20.03207210725108
 31
0.0
  0
LINE
  5
359
330
74
100
AcDbEntity
  8
1
  6
Continuous
 62
     2
100
AcDbLine
 10
-184.337669747062
 20
20.03207210725108
 30
0.0
 11
-197.837669747062
 21
20.03207210725108
 31
0.0
  0
LINE
  5
35A
330
74
100
AcDbEntity
  8
1
  6
Continuous
 62
     2
100
AcDbLine
 10
-184.337669747062
 20
20.03207210725108
 30
0.0
 11
-184.337669747062
 21
15.78207210725108
 31
0.0
  0
LINE
  5
35B
330
74
100
AcDbEntity
  8
1
  6
Continuous
 62
     2
100
AcDbLine
 10
-184.337669747062
 20
32.78207210725108
 30
0.0
 11
-197.837669747062
 21
32.78207210725108
 31
0.0
  0
LINE
  5
35C
330
74
100
AcDbEntity
  8
1
  6
Continuous
 62
     2
100
AcDbLine
 10
-184.337669747062
 20
28.53207210725108
 30
0.0
 11
-197.837669747062
 21
28.53207210725108
 31
0.0
  0
LINE
  5
35D
330
74
100
AcDbEntity
  8
1
  6
Continuous
 62
     2
100
AcDbLine
 10
-184.337669747062
 20
28.53207210725108
 30
0.0
 11
-184.337669747062
 21
24.28207210725108
 31
0.0
  0
LINE
  5
35E
330
74
100
AcDbEntity
  8
1
  6
Continuous
 62
     2
100
AcDbLine
 10
-184.337669747062
 20
32.78207210725108
 30
0.0
 11
-184.337669747062
 21
28.53207210725108
 31
0.0
  0
LINE
  5
35F
330
74
100
AcDbEntity
  8
1
  6
Continuous
 62
     6
100
AcDbLine
 10
-184.337669747062
 20
37.03207210725108
 30
0.0
 11
-197.837669747062
 21
37.03207210725108
 31
0.0
  0
LINE
  5
360
330
74
100
AcDbEntity
  8
1
  6
Continuous
 62
     2
100
AcDbLine
 10
-184.337669747062
 20
37.03207210725108
 30
0.0
 11
-184.337669747062
 21
32.78207210725108
 31
0.0
  0
LINE
  5
361
330
74
100
AcDbEntity
  8
1
  6
Continuous
 62
     6
100
AcDbLine
 10
47.9623302529381
 20
7.28207210725119
 30
0.0
 11
47.96233025293941
 21
15.78207210725108
 31
0.0
  0
LINE
  5
362
330
74
100
AcDbEntity
  8
1
  6
Continuous
 62
     6
100
AcDbLine
 10
47.9623302529389
 20
28.53207210725108
 30
0.0
 11
47.96233025293989
 21
24.28207210725108
 31
0.0
  0
LINE
  5
363
330
74
100
AcDbEntity
  8
1
  6
Continuous
 62
     6
100
AcDbLine
 10
-45.18247427381191
 20
7.28207210725108
 30
0.0
 11
4.46233025293811
 21
7.28207210725119
 31
0.0
  0
LINE
  5
364
330
74
100
AcDbEntity
  8
1
  6
Continuous
 62
     6
100
AcDbLine
 10
-81.58247427381181
 20
7.28207210725108
 30
0.0
 11
-63.38247427381194
 21
7.28207210725119
 31
0.0
  0
LINE
  5
365
330
74
100
AcDbEntity
  8
1
  6
Continuous
 62
     6
100
AcDbLine
 10
-197.837669747062
 20
7.28207210725108
 30
0.0
 11
-195.5376697470619
 21
7.28207210725119
 31
0.0
  0
LINE
  5
366
330
74
100
AcDbEntity
  8
1
  6
Continuous
 62
     6
100
AcDbLine
 10
-122.0824742738118
 20
7.28207210725108
 30
0.0
 11
-145.537669747062
 21
7.28207210725119
 31
0.0
  0
LINE
  5
367
330
74
100
AcDbEntity
  8
1
  6
Continuous
 62
     6
100
AcDbLine
 10
47.96233025293981
 20
37.03207210725108
 30
0.0
 11
30.080738534619
 21
37.03207210725108
 31
0.0
  0
LINE
  5
368
330
74
100
AcDbEntity
  8
1
  6
Continuous
 62
     7
100
AcDbLine
 10
47.96233025293941
 20
15.78207210725108
 30
0.0
 11
2.9623302529401
 21
15.78207210725108
 31
0.0
  0
LINE
  5
369
330
74
100
AcDbEntity
  8
1
  6
Continuous
 62
     7
100
AcDbLine
 10
47.9623302529389
 20
28.53207210725108
 30
0.0
 11
30.080738534619
 21
28.53207210725108
 31
0.0
  0
LINE
  5
36A
330
74
100
AcDbEntity
  8
1
  6
Continuous
 62
     7
100
AcDbLine
 10
2.9623302529401
 20
24.28207210725108
 30
0.0
 11
47.96233025293989
 21
24.28207210725108
 31
0.0
  0
LINE
  5
36B
330
74
100
AcDbEntity
  8
1
  6
Continuous
 62
     7
100
AcDbLine
 10
-45.18247427381191
 20
32.78207210725108
 30
0.0
 11
-45.18247427381191
 21
28.53207210725108
 31
0.0
  0
LINE
  5
36C
330
74
100
AcDbEntity
  8
1
  6
Continuous
 62
     7
100
AcDbLine
 10
-58.68247427381193
 20
32.78207210725108
 30
0.0
 11
-45.18247427381191
 21
32.78207210725108
 31
0.0
  0
LINE
  5
36D
330
74
100
AcDbEntity
  8
1
  6
Continuous
 62
     7
100
AcDbLine
 10
-58.68247427381193
 20
32.78207210725108
 30
0.0
 11
-72.18247427381183
 21
32.78207210725108
 31
0.0
  0
LINE
  5
36E
330
74
100
AcDbEntity
  8
1
  6
Continuous
 62
     7
100
AcDbLine
 10
30.080738534619
 20
28.53207210725108
 30
0.0
 11
30.080738534619
 21
37.03207210725108
 31
0.0
  0
LINE
  5
36F
330
74
100
AcDbEntity
  8
1
  6
Continuous
 62
     6
100
AcDbLine
 10
21.1623302529398
 20
37.03207210725108
 30
0.0
 11
30.080738534619
 21
37.03207210725108
 31
0.0
  0
LINE
  5
370
330
74
100
AcDbEntity
  8
1
  6
Continuous
 62
     7
100
AcDbLine
 10
21.1623302529398
 20
37.03207210725108
 30
0.0
 11
21.16233025294011
 21
28.53207210725119
 31
0.0
  0
LINE
  5
371
330
74
100
AcDbEntity
  8
1
  6
Continuous
 62
     7
100
AcDbLine
 10
2.9623302529401
 20
15.78207210725108
 30
0.0
 11
-15.53766974705952
 21
15.78207210725108
 31
0.0
  0
LINE
  5
372
330
74
100
AcDbEntity
  8
1
  6
Continuous
 62
     7
100
AcDbLine
 10
2.9623302529401
 20
24.28207210725108
 30
0.0
 11
2.9623302529401
 21
15.78207210725108
 31
0.0
  0
LINE
  5
373
330
74
100
AcDbEntity
  8
1
  6
Continuous
 62
     2
100
AcDbLine
 10
-95.08247427381191
 20
37.03207210725108
 30
0.0
 11
-95.08247427381191
 21
32.78207210725108
 31
0.0
  0
LINE
  5
374
330
74
100
AcDbEntity
  8
1
  6
Continuous
 62
     2
100
AcDbLine
 10
-108.5824742738118
 20
37.03207210725108
 30
0.0
 11
-108.5824742738118
 21
32.78207210725108
 31
0.0
  0
LINE
  5
375
330
74
100
AcDbEntity
  8
1
  6
Continuous
 62
     6
100
AcDbLine
 10
-95.08247427381191
 20
37.03207210725108
 30
0.0
 11
-108.5824742738118
 21
37.03207210725108
 31
0.0
  0
LINE
  5
376
330
74
100
AcDbEntity
  8
1
  6
Continuous
 62
     6
100
AcDbLine
 10
-108.5824742738118
 20
37.03207210725108
 30
0.0
 11
-122.0824742738118
 21
37.03207210725108
 31
0.0
  0
LINE
  5
377
330
74
100
AcDbEntity
  8
1
  6
Continuous
 62
     2
100
AcDbLine
 10
-122.0824742738118
 20
37.03207210725108
 30
0.0
 11
-122.0824742738118
 21
32.78207210725108
 31
0.0
  0
LINE
  5
378
330
74
100
AcDbEntity
  8
1
  6
Continuous
 62
     7
100
AcDbLine
 10
-63.38247427381194
 20
11.53207210725119
 30
0.0
 11
-63.38247427381194
 21
7.28207210725119
 31
0.0
  0
LINE
  5
379
330
74
100
AcDbEntity
  8
1
  6
Continuous
 62
     7
100
AcDbLine
 10
-63.38247427381194
 20
11.53207210725119
 30
0.0
 11
-81.58247427381181
 21
11.53207210725119
 31
0.0
  0
LINE
  5
37A
330
74
100
AcDbEntity
  8
1
  6
Continuous
 62
     7
100
AcDbLine
 10
-58.68247427381193
 20
24.28207210725108
 30
0.0
 11
-72.18247427381183
 21
24.28207210725119
 31
0.0
  0
LINE
  5
37B
330
74
100
AcDbEntity
  8
1
  6
Continuous
 62
     7
100
AcDbLine
 10
-45.18247427381191
 20
11.53207210725119
 30
0.0
 11
-63.38247427381194
 21
11.53207210725119
 31
0.0
  0
LINE
  5
37C
330
74
100
AcDbEntity
  8
1
  6
Continuous
 62
     6
100
AcDbLine
 10
-45.18247427381191
 20
37.03207210725108
 30
0.0
 11
-22.28247427381189
 21
37.03207210725108
 31
0.0
  0
LINE
  5
37D
330
74
100
AcDbEntity
  8
1
  6
Continuous
 62
     6
100
AcDbLine
 10
21.1623302529398
 20
37.03207210725108
 30
0.0
 11
-22.28247427381189
 21
37.03207210725108
 31
0.0
  0
LINE
  5
37E
330
74
100
AcDbEntity
  8
1
  6
Continuous
 62
     7
100
AcDbLine
 10
-22.28247427381189
 20
37.03207210725108
 30
0.0
 11
-22.28247427381189
 21
28.53207210725102
 31
0.0
  0
LINE
  5
37F
330
74
100
AcDbEntity
  8
1
  6
Continuous
 62
     6
100
AcDbLine
 10
-197.837669747062
 20
37.03207210725108
 30
0.0
 11
-204.03766974706
 21
37.03207210725108
 31
0.0
  0
LINE
  5
380
330
74
100
AcDbEntity
  8
1
  6
Continuous
 62
     6
100
AcDbLine
 10
-204.03766974706
 20
7.28207210725119
 30
0.0
 11
-204.03766974706
 21
11.53207210725119
 31
0.0
  0
LINE
  5
381
330
74
100
AcDbEntity
  8
1
  6
Continuous
 62
     6
100
AcDbLine
 10
-204.03766974706
 20
11.53207210725119
 30
0.0
 11
-204.03766974706
 21
15.78207210725108
 31
0.0
  0
LINE
  5
382
330
74
100
AcDbEntity
  8
1
  6
Continuous
 62
     7
100
AcDbLine
 10
-58.68247427381193
 20
28.53207210725108
 30
0.0
 11
-58.68247427381193
 21
24.28207210725108
 31
0.0
  0
LINE
  5
383
330
74
100
AcDbEntity
  8
1
  6
Continuous
 62
     7
100
AcDbLine
 10
-72.18247427381183
 20
28.53207210725108
 30
0.0
 11
-72.18247427381183
 21
24.28207210725119
 31
0.0
  0
LINE
  5
384
330
74
100
AcDbEntity
  8
1
  6
Continuous
 62
     7
100
AcDbLine
 10
-58.68247427381193
 20
28.53207210725108
 30
0.0
 11
-72.18247427381183
 21
28.53207210725108
 31
0.0
  0
LINE
  5
385
330
74
100
AcDbEntity
  8
1
  6
Continuous
 62
     2
100
AcDbLine
 10
-81.58247427381181
 20
24.28207210725108
 30
0.0
 11
-95.08247427381191
 21
24.28207210725108
 31
0.0
  0
LINE
  5
386
330
74
100
AcDbEntity
  8
1
  6
Continuous
 62
     2
100
AcDbLine
 10
-197.837669747062
 20
24.28207210725108
 30
0.0
 11
-197.837669747062
 21
28.53207210725108
 31
0.0
  0
LINE
  5
387
330
74
100
AcDbEntity
  8
1
  6
Continuous
 62
     2
100
AcDbLine
 10
-197.837669747062
 20
24.28207210725108
 30
0.0
 11
-204.03766974706
 21
24.28207210725108
 31
0.0
  0
LINE
  5
388
330
74
100
AcDbEntity
  8
1
  6
Continuous
 62
     2
100
AcDbLine
 10
-81.58247427381181
 20
28.53207210725108
 30
0.0
 11
-95.08247427381191
 21
28.53207210725108
 31
0.0
  0
LINE
  5
389
330
74
100
AcDbEntity
  8
1
  6
Continuous
 62
     2
100
AcDbLine
 10
-197.837669747062
 20
28.53207210725108
 30
0.0
 11
-197.837669747062
 21
32.78207210725108
 31
0.0
  0
LINE
  5
38A
330
74
100
AcDbEntity
  8
1
  6
Continuous
 62
     2
100
AcDbLine
 10
-81.58247427381181
 20
32.78207210725108
 30
0.0
 11
-95.08247427381191
 21
32.78207210725108
 31
0.0
  0
LINE
  5
38B
330
74
100
AcDbEntity
  8
1
  6
Continuous
 62
     2
100
AcDbLine
 10
-197.837669747062
 20
32.78207210725108
 30
0.0
 11
-197.837669747062
 21
37.03207210725108
 31
0.0
  0
LINE
  5
38C
330
74
100
AcDbEntity
  8
1
  6
Continuous
 62
     2
100
AcDbLine
 10
-197.837669747062
 20
32.78207210725108
 30
0.0
 11
-204.03766974706
 21
32.78207210725108
 31
0.0
  0
LINE
  5
38D
330
74
100
AcDbEntity
  8
1
  6
Continuous
 62
     6
100
AcDbLine
 10
-81.58247427381181
 20
37.03207210725108
 30
0.0
 11
-95.08247427381191
 21
37.03207210725108
 31
0.0
  0
LINE
  5
38E
330
74
100
AcDbEntity
  8
1
  6
Continuous
 62
     2
100
AcDbLine
 10
-81.58247427381181
 20
15.78207210725108
 30
0.0
 11
-95.08247427381191
 21
15.78207210725108
 31
0.0
  0
LINE
  5
38F
330
74
100
AcDbEntity
  8
1
  6
Continuous
 62
     2
100
AcDbLine
 10
-81.58247427381181
 20
20.03207210725108
 30
0.0
 11
-95.08247427381191
 21
20.03207210725108
 31
0.0
  0
LINE
  5
390
330
74
100
AcDbEntity
  8
1
  6
Continuous
 62
     2
100
AcDbLine
 10
-197.837669747062
 20
15.78207210725108
 30
0.0
 11
-197.837669747062
 21
20.03207210725108
 31
0.0
  0
LINE
  5
391
330
74
100
AcDbEntity
  8
1
  6
Continuous
 62
     2
100
AcDbLine
 10
-197.837669747062
 20
20.03207210725108
 30
0.0
 11
-197.837669747062
 21
24.28207210725108
 31
0.0
  0
LINE
  5
392
330
74
100
AcDbEntity
  8
1
  6
Continuous
 62
     7
100
AcDbLine
 10
-197.837669747062
 20
11.53207210725119
 30
0.0
 11
-184.337669747062
 21
11.53207210725119
 31
0.0
  0
LINE
  5
393
330
74
100
AcDbEntity
  8
1
  6
Continuous
 62
     2
100
AcDbLine
 10
-197.837669747062
 20
11.53207210725119
 30
0.0
 11
-197.837669747062
 21
15.78207210725108
 31
0.0
  0
LINE
  5
394
330
74
100
AcDbEntity
  8
1
  6
Continuous
 62
     7
100
AcDbLine
 10
-45.18247427381191
 20
15.78207210725108
 30
0.0
 11
-45.18247427381191
 21
20.03207210725108
 31
0.0
  0
LINE
  5
395
330
74
100
AcDbEntity
  8
1
  6
Continuous
 62
     6
100
AcDbLine
 10
-58.68247427381193
 20
37.03207210725108
 30
0.0
 11
-45.18247427381191
 21
37.03207210725108
 31
0.0
  0
LINE
  5
396
330
74
100
AcDbEntity
  8
1
  6
Continuous
 62
     7
100
AcDbLine
 10
-45.18247427381191
 20
37.03207210725108
 30
0.0
 11
-45.18247427381191
 21
32.78207210725108
 31
0.0
  0
LINE
  5
397
330
74
100
AcDbEntity
  8
1
  6
Continuous
 62
     6
100
AcDbLine
 10
-72.18247427381183
 20
37.03207210725108
 30
0.0
 11
-58.68247427381193
 21
37.03207210725108
 31
0.0
  0
LINE
  5
398
330
74
100
AcDbEntity
  8
1
  6
Continuous
 62
     7
100
AcDbLine
 10
-81.58247427381181
 20
24.28207210725108
 30
0.0
 11
-81.58247427381181
 21
20.03207210725108
 31
0.0
  0
LINE
  5
399
330
74
100
AcDbEntity
  8
1
  6
Continuous
 62
     7
100
AcDbLine
 10
-81.58247427381181
 20
28.53207210725108
 30
0.0
 11
-81.58247427381181
 21
24.28207210725108
 31
0.0
  0
LINE
  5
39A
330
74
100
AcDbEntity
  8
1
  6
Continuous
 62
     2
100
AcDbLine
 10
-204.03766974706
 20
28.53207210725108
 30
0.0
 11
-197.837669747062
 21
28.53207210725108
 31
0.0
  0
LINE
  5
39B
330
74
100
AcDbEntity
  8
1
  6
Continuous
 62
     7
100
AcDbLine
 10
-81.58247427381181
 20
32.78207210725108
 30
0.0
 11
-81.58247427381181
 21
28.53207210725108
 31
0.0
  0
LINE
  5
39C
330
74
100
AcDbEntity
  8
1
  6
Continuous
 62
     7
100
AcDbLine
 10
-45.18247427381191
 20
28.53207210725108
 30
0.0
 11
-45.18247427381191
 21
24.28207210725108
 31
0.0
  0
LINE
  5
39D
330
74
100
AcDbEntity
  8
1
  6
Continuous
 62
     7
100
AcDbLine
 10
-58.68247427381193
 20
37.03207210725108
 30
0.0
 11
-58.68247427381193
 21
32.78207210725108
 31
0.0
  0
LINE
  5
39E
330
74
100
AcDbEntity
  8
1
  6
Continuous
 62
     7
100
AcDbLine
 10
-72.18247427381183
 20
37.03207210725108
 30
0.0
 11
-72.18247427381183
 21
32.78207210725108
 31
0.0
  0
LINE
  5
39F
330
74
100
AcDbEntity
  8
1
  6
Continuous
 62
     2
100
AcDbLine
 10
-197.837669747062
 20
7.28207210725108
 30
0.0
 11
-197.837669747062
 21
11.53207210725119
 31
0.0
  0
LINE
  5
3A0
330
74
100
AcDbEntity
  8
1
  6
Continuous
 62
     2
100
AcDbLine
 10
-204.03766974706
 20
15.78207210725108
 30
0.0
 11
-197.837669747062
 21
15.78207210725108
 31
0.0
  0
LINE
  5
3A1
330
74
100
AcDbEntity
  8
1
  6
Continuous
 62
     2
100
AcDbLine
 10
-204.03766974706
 20
20.03207210725108
 30
0.0
 11
-197.837669747062
 21
20.03207210725108
 31
0.0
  0
LINE
  5
3A2
330
74
100
AcDbEntity
  8
1
  6
Continuous
 62
     7
100
AcDbLine
 10
-204.03766974706
 20
11.53207210725119
 30
0.0
 11
-197.837669747062
 21
11.53207210725119
 31
0.0
  0
LINE
  5
3A3
330
74
100
AcDbEntity
  8
1
  6
Continuous
 62
     7
100
AcDbLine
 10
-45.18247427381191
 20
15.78207210725108
 30
0.0
 11
-45.18247427381191
 21
11.53207210725119
 31
0.0
  0
LINE
  5
3A4
330
74
100
AcDbEntity
  8
1
  6
Continuous
 62
     7
100
AcDbLine
 10
-81.58247427381181
 20
20.03207210725108
 30
0.0
 11
-81.58247427381181
 21
15.78207210725108
 31
0.0
  0
LINE
  5
3A5
330
74
100
AcDbEntity
  8
1
  6
Continuous
 62
     7
100
AcDbLine
 10
-81.58247427381181
 20
15.78207210725108
 30
0.0
 11
-81.58247427381181
 21
11.53207210725119
 31
0.0
  0
LINE
  5
3A6
330
74
100
AcDbEntity
  8
1
  6
Continuous
 62
     7
100
AcDbLine
 10
-58.68247427381193
 20
32.78207210725108
 30
0.0
 11
-58.68247427381193
 21
28.53207210725108
 31
0.0
  0
LINE
  5
3A7
330
74
100
AcDbEntity
  8
1
  6
Continuous
 62
     7
100
AcDbLine
 10
-72.18247427381183
 20
32.78207210725108
 30
0.0
 11
-72.18247427381183
 21
28.53207210725108
 31
0.0
  0
LINE
  5
3A8
330
74
100
AcDbEntity
  8
1
  6
Continuous
 62
     7
100
AcDbLine
 10
-81.58247427381181
 20
28.53207210725108
 30
0.0
 11
-72.18247427381183
 21
28.53207210725108
 31
0.0
  0
LINE
  5
3A9
330
74
100
AcDbEntity
  8
1
  6
Continuous
 62
     7
100
AcDbLine
 10
-45.18247427381191
 20
24.28207210725108
 30
0.0
 11
-58.68247427381193
 21
24.28207210725108
 31
0.0
  0
LINE
  5
3AA
330
74
100
AcDbEntity
  8
1
  6
Continuous
 62
     7
100
AcDbLine
 10
-45.18247427381191
 20
11.53207210725119
 30
0.0
 11
-45.18247427381191
 21
7.28207210725108
 31
0.0
  0
LINE
  5
3AB
330
74
100
AcDbEntity
  8
1
  6
Continuous
 62
     7
100
AcDbLine
 10
-81.58247427381181
 20
11.53207210725119
 30
0.0
 11
-81.58247427381181
 21
7.28207210725108
 31
0.0
  0
LINE
  5
3AC
330
74
100
AcDbEntity
  8
1
  6
Continuous
 62
     7
100
AcDbLine
 10
-81.58247427381181
 20
37.03207210725108
 30
0.0
 11
-81.58247427381181
 21
32.78207210725108
 31
0.0
  0
LINE
  5
3AD
330
74
100
AcDbEntity
  8
1
  6
Continuous
 62
     7
100
AcDbLine
 10
-45.18247427381191
 20
15.78207210725108
 30
0.0
 11
-15.53766974705952
 21
15.78207210725108
 31
0.0
  0
LINE
  5
3AE
330
74
100
AcDbEntity
  8
1
  6
Continuous
 62
     7
100
AcDbLine
 10
-45.18247427381191
 20
24.28207210725108
 30
0.0
 11
-15.53766974705952
 21
24.28207210725108
 31
0.0
  0
LINE
  5
3AF
330
74
100
AcDbEntity
  8
1
  6
Continuous
 62
     7
100
AcDbLine
 10
21.16233025294011
 20
28.53207210725119
 30
0.0
 11
30.080738534619
 21
28.53207210725108
 31
0.0
  0
LINE
  5
3B0
330
74
100
AcDbEntity
  8
1
  6
Continuous
 62
     7
100
AcDbLine
 10
21.16233025294011
 20
28.53207210725119
 30
0.0
 11
-15.53766974705952
 21
28.53207210725106
 31
0.0
  0
LINE
  5
3B1
330
74
100
AcDbEntity
  8
1
  6
Continuous
 62
     7
100
AcDbLine
 10
-15.53766974705952
 20
24.28207210725108
 30
0.0
 11
2.9623302529401
 21
24.28207210725108
 31
0.0
  0
LINE
  5
3B2
330
74
100
AcDbEntity
  8
1
  6
Continuous
 62
     7
100
AcDbLine
 10
-15.53766974705952
 20
24.28207210725108
 30
0.0
 11
-15.53766974705952
 21
15.78207210725108
 31
0.0
  0
LINE
  5
3B3
330
74
100
AcDbEntity
  8
1
  6
Continuous
 62
     6
100
AcDbLine
 10
-197.837669747062
 20
7.28207210725108
 30
0.0
 11
-204.03766974706
 21
7.28207210725119
 31
0.0
  0
LINE
  5
3B4
330
74
100
AcDbEntity
  8
1
  6
Continuous
 62
     6
100
AcDbLine
 10
-204.03766974706
 20
32.78207210725108
 30
0.0
 11
-204.03766974706
 21
37.03207210725108
 31
0.0
  0
LINE
  5
3B5
330
74
100
AcDbEntity
  8
1
  6
Continuous
 62
     6
100
AcDbLine
 10
-204.03766974706
 20
28.53207210725108
 30
0.0
 11
-204.03766974706
 21
32.78207210725108
 31
0.0
  0
LINE
  5
3B6
330
74
100
AcDbEntity
  8
1
  6
Continuous
 62
     6
100
AcDbLine
 10
-204.03766974706
 20
24.28207210725108
 30
0.0
 11
-204.03766974706
 21
28.53207210725108
 31
0.0
  0
LINE
  5
3B7
330
74
100
AcDbEntity
  8
1
  6
Continuous
 62
     6
100
AcDbLine
 10
-204.03766974706
 20
15.78207210725108
 30
0.0
 11
-204.03766974706
 21
20.03207210725108
 31
0.0
  0
LINE
  5
3B8
330
74
100
AcDbEntity
  8
1
  6
Continuous
 62
     6
100
AcDbLine
 10
-122.0824742738118
 20
37.03207210725108
 30
0.0
 11
-184.337669747062
 21
37.03207210725108
 31
0.0
  0
LINE
  5
3B9
330
74
100
AcDbEntity
  8
1
  6
Continuous
 62
     2
100
AcDbLine
 10
-184.337669747062
 20
32.78207210725108
 30
0.0
 11
-122.0824742738118
 21
32.78207210725108
 31
0.0
  0
LINE
  5
3BA
330
74
100
AcDbEntity
  8
1
  6
Continuous
 62
     2
100
AcDbLine
 10
-184.337669747062
 20
28.53207210725108
 30
0.0
 11
-122.0824742738118
 21
28.53207210725108
 31
0.0
  0
LINE
  5
3BB
330
74
100
AcDbEntity
  8
1
  6
Continuous
 62
     6
100
AcDbLine
 10
-45.18247427381191
 20
7.28207210725108
 30
0.0
 11
-45.5376697470619
 21
7.28207210725119
 31
0.0
  0
LINE
  5
3BC
330
74
100
AcDbEntity
  8
1
  6
Continuous
 62
     7
100
AcDbLine
 10
-58.68247427381193
 20
28.53207210725108
 30
0.0
 11
-45.18247427381191
 21
28.53207210725108
 31
0.0
  0
LINE
  5
3BD
330
74
100
AcDbEntity
  8
1
  6
Continuous
 62
     7
100
AcDbLine
 10
-22.28247427381189
 20
28.53207210725102
 30
0.0
 11
-45.18247427381191
 21
28.53207210725108
 31
0.0
  0
LINE
  5
3BE
330
74
100
AcDbEntity
  8
1
  6
Continuous
 62
     6
100
AcDbLine
 10
47.96233025293989
 20
24.28207210725108
 30
0.0
 11
47.96233025293941
 21
15.78207210725108
 31
0.0
  0
LINE
  5
3BF
330
74
100
AcDbEntity
  8
1
  6
Continuous
 62
     6
100
AcDbLine
 10
-95.08247427381191
 20
7.28207210725108
 30
0.0
 11
-81.58247427381181
 21
7.28207210725108
 31
0.0
  0
LINE
  5
3C0
330
74
100
AcDbEntity
  8
1
  6
Continuous
 62
     2
100
AcDbLine
 10
-95.08247427381191
 20
15.78207210725108
 30
0.0
 11
-95.08247427381191
 21
11.53207210725119
 31
0.0
  0
LINE
  5
3C1
330
74
100
AcDbEntity
  8
1
  6
Continuous
 62
     2
100
AcDbLine
 10
-95.08247427381191
 20
15.78207210725108
 30
0.0
 11
-108.5824742738118
 21
15.78207210725108
 31
0.0
  0
LINE
  5
3C2
330
74
100
AcDbEntity
  8
1
  6
Continuous
 62
     2
100
AcDbLine
 10
-95.08247427381191
 20
11.53207210725119
 30
0.0
 11
-95.08247427381191
 21
7.28207210725108
 31
0.0
  0
LINE
  5
3C3
330
74
100
AcDbEntity
  8
1
  6
Continuous
 62
     7
100
AcDbLine
 10
-95.08247427381191
 20
11.53207210725119
 30
0.0
 11
-81.58247427381181
 21
11.53207210725119
 31
0.0
  0
LINE
  5
3C4
330
74
100
AcDbEntity
  8
1
  6
Continuous
 62
     2
100
AcDbLine
 10
-95.08247427381191
 20
24.28207210725108
 30
0.0
 11
-95.08247427381191
 21
20.03207210725108
 31
0.0
  0
LINE
  5
3C5
330
74
100
AcDbEntity
  8
1
  6
Continuous
 62
     2
100
AcDbLine
 10
-95.08247427381191
 20
24.28207210725108
 30
0.0
 11
-108.5824742738118
 21
24.28207210725108
 31
0.0
  0
LINE
  5
3C6
330
74
100
AcDbEntity
  8
1
  6
Continuous
 62
     2
100
AcDbLine
 10
-95.08247427381191
 20
28.53207210725108
 30
0.0
 11
-95.08247427381191
 21
24.28207210725108
 31
0.0
  0
LINE
  5
3C7
330
74
100
AcDbEntity
  8
1
  6
Continuous
 62
     2
100
AcDbLine
 10
-95.08247427381191
 20
28.53207210725108
 30
0.0
 11
-108.5824742738118
 21
28.53207210725108
 31
0.0
  0
LINE
  5
3C8
330
74
100
AcDbEntity
  8
1
  6
Continuous
 62
     2
100
AcDbLine
 10
-95.08247427381191
 20
32.78207210725108
 30
0.0
 11
-95.08247427381191
 21
28.53207210725108
 31
0.0
  0
LINE
  5
3C9
330
74
100
AcDbEntity
  8
1
  6
Continuous
 62
     2
100
AcDbLine
 10
-95.08247427381191
 20
32.78207210725108
 30
0.0
 11
-108.5824742738118
 21
32.78207210725108
 31
0.0
  0
LINE
  5
3CA
330
74
100
AcDbEntity
  8
1
  6
Continuous
 62
     2
100
AcDbLine
 10
-95.08247427381191
 20
20.03207210725108
 30
0.0
 11
-95.08247427381191
 21
15.78207210725108
 31
0.0
  0
LINE
  5
3CB
330
74
100
AcDbEntity
  8
1
  6
Continuous
 62
     2
100
AcDbLine
 10
-95.08247427381191
 20
20.03207210725108
 30
0.0
 11
-108.5824742738118
 21
20.03207210725108
 31
0.0
  0
LINE
  5
3CC
330
74
100
AcDbEntity
  8
1
  6
Continuous
 62
     6
100
AcDbLine
 10
-108.5824742738118
 20
7.28207210725108
 30
0.0
 11
-95.53766974706191
 21
7.28207210725119
 31
0.0
  0
LINE
  5
3CD
330
74
100
AcDbEntity
  8
1
  6
Continuous
 62
     2
100
AcDbLine
 10
-108.5824742738118
 20
15.78207210725108
 30
0.0
 11
-108.5824742738118
 21
11.53207210725119
 31
0.0
  0
LINE
  5
3CE
330
74
100
AcDbEntity
  8
1
  6
Continuous
 62
     2
100
AcDbLine
 10
-108.5824742738118
 20
15.78207210725108
 30
0.0
 11
-122.0824742738118
 21
15.78207210725108
 31
0.0
  0
LINE
  5
3CF
330
74
100
AcDbEntity
  8
1
  6
Continuous
 62
     2
100
AcDbLine
 10
-108.5824742738118
 20
11.53207210725119
 30
0.0
 11
-108.5824742738118
 21
7.28207210725108
 31
0.0
  0
LINE
  5
3D0
330
74
100
AcDbEntity
  8
1
  6
Continuous
 62
     7
100
AcDbLine
 10
-108.5824742738118
 20
11.53207210725119
 30
0.0
 11
-95.08247427381191
 21
11.53207210725119
 31
0.0
  0
LINE
  5
3D1
330
74
100
AcDbEntity
  8
1
  6
Continuous
 62
     2
100
AcDbLine
 10
-108.5824742738118
 20
24.28207210725108
 30
0.0
 11
-108.5824742738118
 21
20.03207210725108
 31
0.0
  0
LINE
  5
3D2
330
74
100
AcDbEntity
  8
1
  6
Continuous
 62
     2
100
AcDbLine
 10
-108.5824742738118
 20
24.28207210725108
 30
0.0
 11
-122.0824742738118
 21
24.28207210725108
 31
0.0
  0
LINE
  5
3D3
330
74
100
AcDbEntity
  8
1
  6
Continuous
 62
     2
100
AcDbLine
 10
-108.5824742738118
 20
28.53207210725108
 30
0.0
 11
-108.5824742738118
 21
24.28207210725108
 31
0.0
  0
LINE
  5
3D4
330
74
100
AcDbEntity
  8
1
  6
Continuous
 62
     2
100
AcDbLine
 10
-108.5824742738118
 20
28.53207210725108
 30
0.0
 11
-122.0824742738118
 21
28.53207210725108
 31
0.0
  0
LINE
  5
3D5
330
74
100
AcDbEntity
  8
1
  6
Continuous
 62
     2
100
AcDbLine
 10
-108.5824742738118
 20
32.78207210725108
 30
0.0
 11
-108.5824742738118
 21
28.53207210725108
 31
0.0
  0
LINE
  5
3D6
330
74
100
AcDbEntity
  8
1
  6
Continuous
 62
     2
100
AcDbLine
 10
-108.5824742738118
 20
32.78207210725108
 30
0.0
 11
-122.0824742738118
 21
32.78207210725108
 31
0.0
  0
LINE
  5
3D7
330
74
100
AcDbEntity
  8
1
  6
Continuous
 62
     2
100
AcDbLine
 10
-108.5824742738118
 20
20.03207210725108
 30
0.0
 11
-108.5824742738118
 21
15.78207210725108
 31
0.0
  0
LINE
  5
3D8
330
74
100
AcDbEntity
  8
1
  6
Continuous
 62
     2
100
AcDbLine
 10
-108.5824742738118
 20
20.03207210725108
 30
0.0
 11
-122.0824742738118
 21
20.03207210725108
 31
0.0
  0
LINE
  5
3D9
330
74
100
AcDbEntity
  8
1
  6
Continuous
 62
     6
100
AcDbLine
 10
-122.0824742738118
 20
7.28207210725108
 30
0.0
 11
-108.5824742738118
 21
7.28207210725108
 31
0.0
  0
LINE
  5
3DA
330
74
100
AcDbEntity
  8
1
  6
Continuous
 62
     2
100
AcDbLine
 10
-122.0824742738118
 20
15.78207210725108
 30
0.0
 11
-122.0824742738118
 21
11.53207210725119
 31
0.0
  0
LINE
  5
3DB
330
74
100
AcDbEntity
  8
1
  6
Continuous
 62
     2
100
AcDbLine
 10
-122.0824742738118
 20
15.78207210725108
 30
0.0
 11
-184.337669747062
 21
15.78207210725108
 31
0.0
  0
LINE
  5
3DC
330
74
100
AcDbEntity
  8
1
  6
Continuous
 62
     2
100
AcDbLine
 10
-122.0824742738118
 20
11.53207210725119
 30
0.0
 11
-122.0824742738118
 21
7.28207210725108
 31
0.0
  0
LINE
  5
3DD
330
74
100
AcDbEntity
  8
1
  6
Continuous
 62
     7
100
AcDbLine
 10
-122.0824742738118
 20
11.53207210725119
 30
0.0
 11
-108.5824742738118
 21
11.53207210725119
 31
0.0
  0
LINE
  5
3DE
330
74
100
AcDbEntity
  8
1
  6
Continuous
 62
     2
100
AcDbLine
 10
-122.0824742738118
 20
24.28207210725108
 30
0.0
 11
-122.0824742738118
 21
20.03207210725108
 31
0.0
  0
LINE
  5
3DF
330
74
100
AcDbEntity
  8
1
  6
Continuous
 62
     2
100
AcDbLine
 10
-122.0824742738118
 20
24.28207210725108
 30
0.0
 11
-184.337669747062
 21
24.28207210725108
 31
0.0
  0
LINE
  5
3E0
330
74
100
AcDbEntity
  8
1
  6
Continuous
 62
     2
100
AcDbLine
 10
-122.0824742738118
 20
28.53207210725108
 30
0.0
 11
-122.0824742738118
 21
24.28207210725108
 31
0.0
  0
LINE
  5
3E1
330
74
100
AcDbEntity
  8
1
  6
Continuous
 62
     2
100
AcDbLine
 10
-122.0824742738118
 20
32.78207210725108
 30
0.0
 11
-122.0824742738118
 21
28.53207210725108
 31
0.0
  0
LINE
  5
3E2
330
74
100
AcDbEntity
  8
1
  6
Continuous
 62
     2
100
AcDbLine
 10
-122.0824742738118
 20
20.03207210725108
 30
0.0
 11
-122.0824742738118
 21
15.78207210725108
 31
0.0
  0
LINE
  5
3E3
330
74
100
AcDbEntity
  8
1
  6
Continuous
 62
     2
100
AcDbLine
 10
-122.0824742738118
 20
20.03207210725108
 30
0.0
 11
-184.337669747062
 21
20.03207210725108
 31
0.0
  0
LINE
  5
3E4
330
74
100
AcDbEntity
  8
1
  6
Continuous
 62
     7
100
AcDbLine
 10
-72.18247427381183
 20
24.28207210725119
 30
0.0
 11
-81.58247427381181
 21
24.28207210725108
 31
0.0
  0
LINE
  5
3E5
330
74
100
AcDbEntity
  8
1
  6
Continuous
 62
     6
100
AcDbLine
 10
-72.18247427381183
 20
37.03207210725108
 30
0.0
 11
-81.58247427381181
 21
37.03207210725108
 31
0.0
  0
LINE
  5
3E6
330
74
100
AcDbEntity
  8
1
  6
Continuous
 62
     7
100
AcDbLine
 10
-81.58247427381181
 20
32.78207210725108
 30
0.0
 11
-72.18247427381183
 21
32.78207210725108
 31
0.0
  0
LINE
  5
3E7
330
74
100
AcDbEntity
  8
1
  6
Continuous
 62
     6
100
AcDbLine
 10
-204.03766974706
 20
20.03207210725108
 30
0.0
 11
-204.03766974706
 21
24.28207210725108
 31
0.0
  0
LINE
  5
3E8
330
74
100
AcDbEntity
  8
1
  6
Continuous
 62
     6
100
AcDbLine
 10
47.96233025293981
 20
37.03207210725108
 30
0.0
 11
47.9623302529389
 21
28.53207210725108
 31
0.0
  0
LINE
  5
3E9
330
74
100
AcDbEntity
  8
1
  6
Continuous
 62
     6
100
AcDbLine
 10
-204.03766974706
 20
7.28207210725119
 30
0.0
 11
-239.0376697470599
 21
7.28207210725119
 31
0.0
  0
LINE
  5
3EA
330
74
100
AcDbEntity
  8
1
  6
Continuous
 62
     2
100
AcDbLine
 10
-73.30220513929655
 20
23.65707210725108
 30
0.0
 11
-69.30220513929655
 21
23.15707210725108
 31
0.0
  0
LINE
  5
3EB
330
74
100
AcDbEntity
  8
1
  6
Continuous
 62
     2
100
AcDbLine
 10
-69.30220513929655
 20
23.15707210725108
 30
0.0
 11
-69.30220513929655
 21
21.15707210725108
 31
0.0
  0
LINE
  5
3EC
330
74
100
AcDbEntity
  8
1
  6
Continuous
 62
     2
100
AcDbLine
 10
-69.30220513929655
 20
21.15707210725108
 30
0.0
 11
-73.30220513929655
 21
20.65707210725108
 31
0.0
  0
LINE
  5
3ED
330
74
100
AcDbEntity
  8
1
  6
Continuous
 62
     2
100
AcDbLine
 10
-73.30220513929655
 20
20.65707210725108
 30
0.0
 11
-73.30220513929655
 21
23.65707210725108
 31
0.0
  0
LINE
  5
3EE
330
74
100
AcDbEntity
  8
1
  6
Continuous
 62
     7
100
AcDbLine
 10
-15.53766974705952
 20
28.53207210725106
 30
0.0
 11
-22.28247427381189
 21
28.53207210725102
 31
0.0
  0
LINE
  5
3EF
330
74
100
AcDbEntity
  8
1
  6
Continuous
 62
     7
100
AcDbLine
 10
-15.53766974705952
 20
24.28207210725108
 30
0.0
 11
-13.53766974705952
 21
24.28207210725108
 31
0.0
  0
LINE
  5
3F0
330
74
100
AcDbEntity
  8
1
  6
Continuous
 62
     2
100
AcDbLine
 10
19.39706693772709
 20
22.73185282821832
 30
0.0
 11
19.39706693772709
 21
20.67445686336482
 31
0.0
  0
ARC
  5
3F1
102
{ACAD_REACTORS
330
49A
330
49B
102
}
330
74
100
AcDbEntity
  8
0
  6
Continuous
 62
     2
100
AcDbCircle
 10
-65.70342634078702
 20
14.39397686916223
 30
0.0
 40
0.6378510567600066
100
AcDbArc
 50
321.8795802028405
 51
38.12041979715862
  0
ARC
  5
3F2
102
{ACAD_REACTORS
330
49A
330
49B
102
}
330
74
100
AcDbEntity
  8
0
  6
Continuous
 62
     2
100
AcDbCircle
 10
-65.53835193058342
 20
14.26444696988955
 30
0.0
 40
0.4280236140609635
100
AcDbArc
 50
218.1204197971923
 51
321.8795802027983
  0
ARC
  5
3F3
102
{ACAD_REACTORS
330
49A
330
49B
102
}
330
74
100
AcDbEntity
  8
0
  6
Continuous
 62
     2
100
AcDbCircle
 10
-65.37327752038004
 20
14.39397686916223
 30
0.0
 40
0.6378510567599095
100
AcDbArc
 50
141.8795802028351
 51
218.1204197971658
  0
ARC
  5
3F4
102
{ACAD_REACTORS
330
49A
330
49B
102
}
330
74
100
AcDbEntity
  8
0
  6
Continuous
 62
     2
100
AcDbCircle
 10
-65.53835193058342
 20
14.52350676843535
 30
0.0
 40
0.4280236140605955
100
AcDbArc
 50
38.12041979715423
 51
141.8795802028552
  0
ARC
  5
3F5
102
{ACAD_REACTORS
330
492
330
493
102
}
330
74
100
AcDbEntity
  8
0
  6
Continuous
 62
     2
100
AcDbCircle
 10
-68.06894212526436
 20
13.22830218700673
 30
0.0
 40
1.840813230556617
100
AcDbArc
 50
58.06909105003761
 51
71.55192388186693
  0
ARC
  5
3F6
102
{ACAD_REACTORS
330
492
330
493
102
}
330
74
100
AcDbEntity
  8
0
  6
Continuous
 62
     2
100
AcDbCircle
 10
-67.85263824017443
 20
14.56345738927714
 30
0.0
 40
0.4227934381775693
100
AcDbArc
 50
113.3722778881983
 51
151.4785267423096
  0
ARC
  5
3F7
102
{ACAD_REACTORS
330
492
330
493
102
}
330
74
100
AcDbEntity
  8
0
  6
Continuous
 62
     2
100
AcDbCircle
 10
-67.54077273762869
 20
14.39397686916223
 30
0.0
 40
0.7777353184572794
100
AcDbArc
 50
151.4785267422687
 51
208.5214732577029
  0
ARC
  5
3F8
102
{ACAD_REACTORS
330
492
330
493
102
}
330
74
100
AcDbEntity
  8
0
  6
Continuous
 62
     2
100
AcDbCircle
 10
-68.1994155757543
 20
17.13172971648158
 30
0.0
 40
4.010410630990213
100
AcDbArc
 50
275.1581447696246
 51
285.9799912583532
  0
ARC
  5
3F9
102
{ACAD_REACTORS
330
492
330
493
102
}
330
74
100
AcDbEntity
  8
0
  6
Continuous
 62
     2
100
AcDbCircle
 10
-67.96069153051803
 20
14.48719204439762
 30
0.0
 40
1.355119937140023
100
AcDbArc
 50
195.0618917770909
 51
275.1581447696391
  0
ARC
  5
3FA
102
{ACAD_REACTORS
330
492
330
493
102
}
330
74
100
AcDbEntity
  8
0
  6
Continuous
 62
     2
100
AcDbCircle
 10
-68.30707817800794
 20
14.39397686916223
 30
0.0
 40
0.9964100565214622
100
AcDbArc
 50
164.9381082228799
 51
195.0618917770962
  0
ARC
  5
3FB
102
{ACAD_REACTORS
330
492
330
493
102
}
330
74
100
AcDbEntity
  8
0
  6
Continuous
 62
     2
100
AcDbCircle
 10
-67.96069153051803
 20
14.30076169392682
 30
0.0
 40
1.355119937140908
100
AcDbArc
 50
84.84185523036265
 51
164.9381082228906
  0
ARC
  5
3FC
102
{ACAD_REACTORS
330
496
330
497
102
}
330
74
100
AcDbEntity
  8
0
  6
Continuous
 62
     2
100
AcDbCircle
 10
-71.9524388480072
 20
15.24837917854596
 30
0.0
 40
0.2609230769227325
100
AcDbArc
 50
115.3740086783589
 51
180.0
  0
ARC
  5
3FD
102
{ACAD_REACTORS
330
496
330
497
102
}
330
74
100
AcDbEntity
  8
0
  6
Continuous
 62
     2
100
AcDbCircle
 10
-71.9524388480072
 20
17.08167107931967
 30
0.0
 40
0.2609230769229498
100
AcDbArc
 50
180.0
 51
244.6259913216399
  0
ARC
  5
3FE
102
{ACAD_REACTORS
330
496
330
497
102
}
330
74
100
AcDbEntity
  8
0
  6
Continuous
 62
     2
100
AcDbCircle
 10
-71.94779741386674
 20
16.17481185695416
 30
0.0
 40
1.668232340440702
100
AcDbArc
 50
269.8110329575862
 51
90.18896704241376
  0
ARC
  5
3FF
102
{ACAD_REACTORS
330
496
330
497
102
}
330
74
100
AcDbEntity
  8
0
  6
Continuous
 62
     2
100
AcDbCircle
 10
-71.9524388480072
 20
14.76751024739299
 30
0.0
 40
0.2609230769229498
100
AcDbArc
 50
180.0
 51
269.8110329574465
  0
ARC
  5
400
102
{ACAD_REACTORS
330
494
330
495
102
}
330
74
100
AcDbEntity
  8
0
  6
Continuous
 62
     2
100
AcDbCircle
 10
-54.54462048872574
 20
14.56345738927714
 30
0.0
 40
0.4227934381772261
100
AcDbArc
 50
109.337143219486
 51
151.478526742422
  0
ARC
  5
401
102
{ACAD_REACTORS
330
494
330
495
102
}
330
74
100
AcDbEntity
  8
0
  6
Continuous
 62
     2
100
AcDbCircle
 10
-54.54462048872574
 20
14.22449634904777
 30
0.0
 40
0.4227934381785468
100
AcDbArc
 50
208.5214732576875
 51
246.6277221118393
  0
ARC
  5
402
102
{ACAD_REACTORS
330
494
330
495
102
}
330
74
100
AcDbEntity
  8
0
  6
Continuous
 62
     2
100
AcDbCircle
 10
-54.99906042655834
 20
14.39397686916223
 30
0.0
 40
0.996410056523109
100
AcDbArc
 50
164.9381082229054
 51
195.0618917770958
  0
ARC
  5
403
102
{ACAD_REACTORS
330
494
330
495
102
}
330
74
100
AcDbEntity
  8
0
  6
Continuous
 62
     2
100
AcDbCircle
 10
-54.65267377906935
 20
14.30076169392682
 30
0.0
 40
1.355119937140591
100
AcDbArc
 50
90.0
 51
164.9381082228992
  0
ARC
  5
404
102
{ACAD_REACTORS
330
498
330
499
102
}
330
74
100
AcDbEntity
  8
0
  6
Continuous
 62
     2
100
AcDbCircle
 10
-62.44357881436167
 20
17.17016734533938
 30
0.0
 40
1.26190476190564
100
AcDbArc
 50
90.0
 51
270.0
  0
ARC
  5
405
102
{ACAD_REACTORS
330
49C
330
49D
102
}
330
74
100
AcDbEntity
  8
0
  6
Continuous
 62
     2
100
AcDbCircle
 10
-68.01605050463093
 20
17.59242775178124
 30
0.0
 40
0.2916229955959899
100
AcDbArc
 50
270.0
 51
90.0
  0
ARC
  5
406
102
{ACAD_REACTORS
330
496
330
497
102
}
330
74
100
AcDbEntity
  8
0
  6
Continuous
 62
     2
100
AcDbCircle
 10
-74.0809914815045
 20
17.58226014143119
 30
0.0
 40
0.2609230769224524
100
AcDbArc
 50
90.0
 51
180.0
  0
ARC
  5
407
102
{ACAD_REACTORS
330
496
330
497
102
}
330
74
100
AcDbEntity
  8
0
  6
Continuous
 62
     2
100
AcDbCircle
 10
-72.42940659837677
 20
16.16502512893305
 30
0.0
 40
0.7536343169897688
100
AcDbArc
 50
115.1944106485234
 51
244.8055893514914
  0
ARC
  5
408
102
{ACAD_REACTORS
330
496
330
497
102
}
330
74
100
AcDbEntity
  8
0
  6
Continuous
 62
     2
100
AcDbCircle
 10
-72.86129457157926
 20
15.24698401648451
 30
0.0
 40
0.2609230769228361
100
AcDbArc
 50
0.0
 51
64.8055893514401
  0
ARC
  5
409
102
{ACAD_REACTORS
330
496
330
497
102
}
330
74
100
AcDbEntity
  8
0
  6
Continuous
 62
     2
100
AcDbCircle
 10
-74.57181352840246
 20
13.48268749187132
 30
0.0
 40
0.3506153846138886
100
AcDbArc
 50
180.0
 51
270.0
  0
ARC
  5
40A
102
{ACAD_REACTORS
330
498
330
499
102
}
330
74
100
AcDbEntity
  8
0
  6
Continuous
 62
     2
100
AcDbCircle
 10
-62.26484161587803
 20
17.2996972446125
 30
0.0
 40
0.4280236140606861
100
AcDbArc
 50
38.12041979714503
 51
141.8795802028555
  0
ARC
  5
40B
102
{ACAD_REACTORS
330
498
330
499
102
}
330
74
100
AcDbEntity
  8
0
  6
Continuous
 62
     2
100
AcDbCircle
 10
-62.09976720567454
 20
17.17016734533938
 30
0.0
 40
0.6378510567600056
100
AcDbArc
 50
141.8795802028417
 51
218.1204197971583
  0
ARC
  5
40C
102
{ACAD_REACTORS
330
49A
330
49B
102
}
330
74
100
AcDbEntity
  8
0
  6
Continuous
 62
     2
100
AcDbCircle
 10
-65.53835193058342
 20
14.8390801834625
 30
0.0
 40
1.70700807620544
100
AcDbArc
 50
242.4518518243401
 51
297.548148175687
  0
ARC
  5
40D
102
{ACAD_REACTORS
330
49A
330
49B
102
}
330
74
100
AcDbEntity
  8
0
  6
Continuous
 62
     2
100
AcDbCircle
 10
-65.53835193058342
 20
13.94887355486241
 30
0.0
 40
1.707008076205444
100
AcDbArc
 50
62.45185182430569
 51
117.5481481756673
  0
ARC
  5
40E
102
{ACAD_REACTORS
330
49A
330
49B
102
}
330
74
100
AcDbEntity
  8
0
  6
Continuous
 62
     2
100
AcDbCircle
 10
-65.77053365937127
 20
14.39397686916223
 30
0.0
 40
1.204986845992994
100
AcDbArc
 50
117.5481481756635
 51
242.451851824337
  0
ARC
  5
40F
102
{ACAD_REACTORS
330
49A
330
49B
102
}
330
74
100
AcDbEntity
  8
0
  6
Continuous
 62
     2
100
AcDbCircle
 10
-65.30617020179557
 20
14.39397686916223
 30
0.0
 40
1.204986845993433
100
AcDbArc
 50
297.5481481757013
 51
62.45185182429817
  0
ARC
  5
410
102
{ACAD_REACTORS
330
498
330
499
102
}
330
74
100
AcDbEntity
  8
0
  6
Continuous
 62
     2
100
AcDbCircle
 10
-62.26484161587803
 20
17.04063744606625
 30
0.0
 40
0.4280236140606851
100
AcDbArc
 50
218.1204197971433
 51
321.8795802028561
  0
ARC
  5
411
102
{ACAD_REACTORS
330
498
330
499
102
}
330
74
100
AcDbEntity
  8
0
  6
Continuous
 62
     2
100
AcDbCircle
 10
-62.42991602608151
 20
17.17016734533938
 30
0.0
 40
0.6378510567599944
100
AcDbArc
 50
321.8795802028409
 51
38.12041979715914
  0
ARC
  5
412
102
{ACAD_REACTORS
330
496
330
497
102
}
330
74
100
AcDbEntity
  8
0
  6
Continuous
 62
     2
100
AcDbCircle
 10
-70.04841510632241
 20
13.48268749187132
 30
0.0
 40
0.3506153846142812
100
AcDbArc
 50
270.0
 51
0.0
  0
ARC
  5
413
102
{ACAD_REACTORS
330
496
330
497
102
}
330
74
100
AcDbEntity
  8
0
  6
Continuous
 62
     2
100
AcDbCircle
 10
-70.04841510632241
 20
18.08145672261529
 30
0.0
 40
0.3506153846147981
100
AcDbArc
 50
0.0
 51
90.0
  0
ARC
  5
414
102
{ACAD_REACTORS
330
496
330
497
102
}
330
74
100
AcDbEntity
  8
0
  6
Continuous
 62
     2
100
AcDbCircle
 10
-74.57181352840246
 20
18.08145672261529
 30
0.0
 40
0.3506153846147413
100
AcDbArc
 50
90.0
 51
180.0
  0
ARC
  5
415
102
{ACAD_REACTORS
330
496
330
497
102
}
330
74
100
AcDbEntity
  8
0
  6
Continuous
 62
     2
100
AcDbCircle
 10
-72.86129457157926
 20
13.98188407306995
 30
0.0
 40
0.2609230769228894
100
AcDbArc
 50
270.0
 51
0.0
  0
ARC
  5
416
102
{ACAD_REACTORS
330
496
330
497
102
}
330
74
100
AcDbEntity
  8
0
  6
Continuous
 62
     2
100
AcDbCircle
 10
-72.86129457157926
 20
17.08306624138113
 30
0.0
 40
0.2609230769224065
100
AcDbArc
 50
295.1944106485601
 51
0.0
  0
ARC
  5
417
102
{ACAD_REACTORS
330
496
330
497
102
}
330
74
100
AcDbEntity
  8
0
  6
Continuous
 62
     2
100
AcDbCircle
 10
-72.86129457157926
 20
17.58226014143119
 30
0.0
 40
0.2609230769228361
100
AcDbArc
 50
0.0
 51
90.0
  0
ARC
  5
418
102
{ACAD_REACTORS
330
496
330
497
102
}
330
74
100
AcDbEntity
  8
0
  6
Continuous
 62
     2
100
AcDbCircle
 10
-74.0809914815045
 20
13.98188407306995
 30
0.0
 40
0.2609230769220403
100
AcDbArc
 50
180.0
 51
270.0
  0
ARC
  5
419
102
{ACAD_REACTORS
330
49C
330
49D
102
}
330
74
100
AcDbEntity
  8
0
  6
Continuous
 62
     2
100
AcDbCircle
 10
-67.65119717716118
 20
17.55986909787833
 30
0.0
 40
0.8722030093666717
100
AcDbArc
 50
270.0
 51
90.0
  0
ARC
  5
41A
102
{ACAD_REACTORS
330
494
330
495
102
}
330
74
100
AcDbEntity
  8
0
  6
Continuous
 62
     2
100
AcDbCircle
 10
-54.65267377906935
 20
14.48719204439762
 30
0.0
 40
1.355119937140895
100
AcDbArc
 50
195.0618917771008
 51
275.158144769676
  0
ARC
  5
41B
102
{ACAD_REACTORS
330
494
330
495
102
}
330
74
100
AcDbEntity
  8
0
  6
Continuous
 62
     2
100
AcDbCircle
 10
-54.89139782430561
 20
17.13172971648158
 30
0.0
 40
4.010410630990744
100
AcDbArc
 50
275.1581447696369
 51
285.9799912583388
  0
ARC
  5
41C
102
{ACAD_REACTORS
330
494
330
495
102
}
330
74
100
AcDbEntity
  8
0
  6
Continuous
 62
     2
100
AcDbCircle
 10
-54.76092437381567
 20
15.55965155131771
 30
0.0
 40
1.840813230556003
100
AcDbArc
 50
288.4480761181333
 51
301.9309089499382
  0
ARC
  5
41D
102
{ACAD_REACTORS
330
494
330
495
102
}
330
74
100
AcDbEntity
  8
0
  6
Continuous
 62
     2
100
AcDbCircle
 10
-54.41533120550002
 20
14.52366330665935
 30
0.0
 40
0.7487023016407038
100
AcDbArc
 50
246.627722111814
 51
288.4480761180797
  0
ARC
  5
41E
102
{ACAD_REACTORS
330
494
330
495
102
}
330
74
100
AcDbEntity
  8
0
  6
Continuous
 62
     2
100
AcDbCircle
 10
-54.23275498617909
 20
14.39397686916223
 30
0.0
 40
0.777735318458663
100
AcDbArc
 50
151.4785267423618
 51
208.5214732576687
  0
ARC
  5
41F
102
{ACAD_REACTORS
330
494
330
495
102
}
330
74
100
AcDbEntity
  8
0
  6
Continuous
 62
     2
100
AcDbCircle
 10
-54.42340561425988
 20
14.21804005011771
 30
0.0
 40
0.7888619891124407
100
AcDbArc
 50
90.0
 51
109.3371432194314
  0
ARC
  5
420
102
{ACAD_REACTORS
330
496
330
497
102
}
330
74
100
AcDbEntity
  8
0
  6
Continuous
 62
     2
100
AcDbCircle
 10
-71.9524388480072
 20
17.58211346651534
 30
0.0
 40
0.2609230769224181
100
AcDbArc
 50
90.18896704255353
 51
180.0
  0
ARC
  5
421
102
{ACAD_REACTORS
330
496
330
497
102
}
330
74
100
AcDbEntity
  8
0
  6
Continuous
 62
     2
100
AcDbCircle
 10
-72.38718487948483
 20
16.16502512893305
 30
0.0
 40
0.7535935125160986
100
AcDbArc
 50
295.374008678178
 51
64.62599132180713
  0
ARC
  5
422
102
{ACAD_REACTORS
330
492
330
493
102
}
330
74
100
AcDbEntity
  8
0
  6
Continuous
 62
     2
100
AcDbCircle
 10
-68.06894212526436
 20
15.55965155131817
 30
0.0
 40
1.840813230556011
100
AcDbArc
 50
288.4480761181332
 51
301.9309089499624
  0
ARC
  5
423
102
{ACAD_REACTORS
330
492
330
493
102
}
330
74
100
AcDbEntity
  8
0
  6
Continuous
 62
     2
100
AcDbCircle
 10
-67.72334895694962
 20
14.52366330665935
 30
0.0
 40
0.7487023016403824
100
AcDbArc
 50
246.6277221118709
 51
288.4480761181571
  0
ARC
  5
424
102
{ACAD_REACTORS
330
492
330
493
102
}
330
74
100
AcDbEntity
  8
0
  6
Continuous
 62
     2
100
AcDbCircle
 10
-67.85263824017443
 20
14.22449634904777
 30
0.0
 40
0.422793438177528
100
AcDbArc
 50
208.5214732576916
 51
246.627722111826
  0
ARC
  5
425
102
{ACAD_REACTORS
330
492
330
493
102
}
330
74
100
AcDbEntity
  8
0
  6
Continuous
 62
     2
100
AcDbCircle
 10
-67.72334895694962
 20
14.26429043166509
 30
0.0
 40
0.7487023016407717
100
AcDbArc
 50
71.55192388185432
 51
113.3722778881285
  0
ARC
  5
426
102
{ACAD_REACTORS
330
492
330
493
102
}
330
74
100
AcDbEntity
  8
0
  6
Continuous
 62
     2
100
AcDbCircle
 10
-68.1994155757543
 20
11.65622402184333
 30
0.0
 40
4.010410630990089
100
AcDbArc
 50
74.02000874164679
 51
84.84185523037543
  0
CIRCLE
  5
427
102
{ACAD_REACTORS
330
496
330
497
102
}
330
74
100
AcDbEntity
  8
0
  6
Continuous
 62
     2
100
AcDbCircle
 10
-72.4068667097929
 20
16.16502512893305
 30
0.0
 40
0.3892387874202541
  0
CIRCLE
  5
428
330
74
100
AcDbEntity
  8
1
  6
Continuous
 62
     2
100
AcDbCircle
 10
-76.49021444870854
 20
22.15707210725108
 30
0.0
 40
1.0
  0
CIRCLE
  5
429
330
74
100
AcDbEntity
  8
1
  6
Continuous
 62
     2
100
AcDbCircle
 10
-76.49021444870854
 20
22.15707210725108
 30
0.0
 40
1.5
  0
MTEXT
  5
42B
330
74
100
AcDbEntity
  8
1
 62
     2
100
AcDbMText
 10
-44.0824742738119
 20
26.60707210725107
 30
0.0
 40
1.4
 41
0.0
 71
     4
 72
     1
  1
SAP\Pchange-No.
  7
CONVERTER_12
 73
     1
 44
0.66026410564226
  0
MTEXT
  5
42C
330
74
100
AcDbEntity
  8
1
 62
     3
100
AcDbMText
 10
-34.85023745569701
 20
26.40707210725107
 30
0.0
 40
2.5
 41
0.0
 71
     4
 72
     1
  1
P01-10012/01
  7
CONVERTER_12
 73
     1
 44
1.20048019207683
  0
TEXT
  5
42E
330
74
100
AcDbEntity
  8
1
 62
     3
100
AcDbText
 10
-44.08247427381198
 20
39.32684368085533
 30
0.0
 40
2.5
  1
 
 41
0.72
  7
CONVERTER_13
100
AcDbText
  0
TEXT
  5
42F
330
74
100
AcDbEntity
  8
1
 62
     3
100
AcDbText
 10
-44.08247427381198
 20
42.82684368085533
 30
0.0
 40
2.5
  1
 
 41
0.72
  7
CONVERTER_13
100
AcDbText
  0
TEXT
  5
430
330
74
100
AcDbEntity
  8
1
 62
     3
100
AcDbText
 10
-44.08247427381198
 20
46.32684368085533
 30
0.0
 40
2.5
  1
 
 41
0.72
  7
CONVERTER_13
100
AcDbText
  0
MTEXT
  5
432
330
74
100
AcDbEntity
  8
1
 62
     2
100
AcDbMText
 10
-183.337669747062
 20
13.65707210725119
 30
0.0
 40
2.0
 41
0.0
 71
     4
 72
     1
  1
 
  7
CONVERTER_14
 73
     1
 44
1.20048019207683
  0
MTEXT
  5
433
330
74
100
AcDbEntity
  8
1
 62
     2
100
AcDbMText
 10
-183.337669747062
 20
17.90707210725108
 30
0.0
 40
2.0
 41
0.0
 71
     4
 72
     1
  1
 
  7
CONVERTER_14
 73
     1
 44
1.20048019207683
  0
MTEXT
  5
434
330
74
100
AcDbEntity
  8
1
 62
     2
100
AcDbMText
 10
-183.337669747062
 20
22.15707210725108
 30
0.0
 40
2.0
 41
0.0
 71
     4
 72
     1
  1
 
  7
CONVERTER_14
 73
     1
 44
1.20048019207683
  0
MTEXT
  5
435
330
74
100
AcDbEntity
  8
1
 62
     2
100
AcDbMText
 10
-183.337669747062
 20
26.40707210725108
 30
0.0
 40
2.0
 41
0.0
 71
     4
 72
     1
  1
 
  7
CONVERTER_14
 73
     1
 44
1.20048019207683
  0
MTEXT
  5
436
330
74
100
AcDbEntity
  8
1
 62
     2
100
AcDbMText
 10
-183.337669747062
 20
30.65707210725108
 30
0.0
 40
2.0
 41
0.0
 71
     4
 72
     1
  1
 
  7
CONVERTER_14
 73
     1
 44
1.20048019207683
  0
MTEXT
  5
437
330
74
100
AcDbEntity
  8
1
 62
     2
100
AcDbMText
 10
-183.337669747062
 20
34.90707210725108
 30
0.0
 40
2.0
 41
0.0
 71
     4
 72
     1
  1
 
  7
CONVERTER_14
 73
     1
 44
1.20048019207683
  0
MTEXT
  5
438
330
74
100
AcDbEntity
  8
1
 62
     2
100
AcDbMText
 10
-88.33247427381188
 20
13.65707210725119
 30
0.0
 40
2.0
 41
0.0
 71
     5
 72
     1
  1
 
  7
CONVERTER_11
 73
     1
 44
1.20048019207683
  0
MTEXT
  5
439
330
74
100
AcDbEntity
  8
1
 62
     2
100
AcDbMText
 10
-88.33247427381188
 20
17.90707210725108
 30
0.0
 40
2.0
 41
0.0
 71
     5
 72
     1
  1
 
  7
CONVERTER_11
 73
     1
 44
1.20048019207683
  0
MTEXT
  5
43A
330
74
100
AcDbEntity
  8
1
 62
     2
100
AcDbMText
 10
-88.33247427381188
 20
22.15707210725108
 30
0.0
 40
2.0
 41
0.0
 71
     5
 72
     1
  1
 
  7
CONVERTER_11
 73
     1
 44
1.20048019207683
  0
MTEXT
  5
43B
330
74
100
AcDbEntity
  8
1
 62
     2
100
AcDbMText
 10
-88.33247427381188
 20
26.40707210725108
 30
0.0
 40
2.0
 41
0.0
 71
     5
 72
     1
  1
 
  7
CONVERTER_11
 73
     1
 44
1.20048019207683
  0
MTEXT
  5
43C
330
74
100
AcDbEntity
  8
1
 62
     2
100
AcDbMText
 10
-88.33247427381188
 20
30.65707210725108
 30
0.0
 40
2.0
 41
0.0
 71
     5
 72
     1
  1
 
  7
CONVERTER_11
 73
     1
 44
1.20048019207683
  0
MTEXT
  5
43D
330
74
100
AcDbEntity
  8
1
 62
     2
100
AcDbMText
 10
-88.33247427381188
 20
34.90707210725108
 30
0.0
 40
2.0
 41
0.0
 71
     5
 72
     1
  1
 
  7
CONVERTER_11
 73
     1
 44
1.20048019207683
  0
MTEXT
  5
43E
330
74
100
AcDbEntity
  8
1
 62
     2
100
AcDbMText
 10
-101.8324742738119
 20
13.65707210725119
 30
0.0
 40
2.0
 41
0.0
 71
     5
 72
     1
  1
 
  7
CONVERTER_11
 73
     1
 44
1.20048019207683
  0
MTEXT
  5
43F
330
74
100
AcDbEntity
  8
1
 62
     2
100
AcDbMText
 10
-101.8324742738119
 20
17.90707210725108
 30
0.0
 40
2.0
 41
0.0
 71
     5
 72
     1
  1
 
  7
CONVERTER_11
 73
     1
 44
1.20048019207683
  0
MTEXT
  5
440
330
74
100
AcDbEntity
  8
1
 62
     2
100
AcDbMText
 10
-101.8324742738119
 20
22.15707210725108
 30
0.0
 40
2.0
 41
0.0
 71
     5
 72
     1
  1
 
  7
CONVERTER_11
 73
     1
 44
1.20048019207683
  0
MTEXT
  5
441
330
74
100
AcDbEntity
  8
1
 62
     2
100
AcDbMText
 10
-101.8324742738119
 20
26.40707210725108
 30
0.0
 40
2.0
 41
0.0
 71
     5
 72
     1
  1
 
  7
CONVERTER_11
 73
     1
 44
1.20048019207683
  0
MTEXT
  5
442
330
74
100
AcDbEntity
  8
1
 62
     2
100
AcDbMText
 10
-101.8324742738119
 20
30.65707210725108
 30
0.0
 40
2.0
 41
0.0
 71
     5
 72
     1
  1
 
  7
CONVERTER_11
 73
     1
 44
1.20048019207683
  0
MTEXT
  5
443
330
74
100
AcDbEntity
  8
1
 62
     2
100
AcDbMText
 10
-101.8324742738119
 20
34.90707210725108
 30
0.0
 40
2.0
 41
0.0
 71
     5
 72
     1
  1
 
  7
CONVERTER_11
 73
     1
 44
1.20048019207683
  0
MTEXT
  5
444
330
74
100
AcDbEntity
  8
1
 62
     2
100
AcDbMText
 10
-115.3324742738118
 20
34.90707210725108
 30
0.0
 40
2.0
 41
0.0
 71
     5
 72
     1
  1
 
  7
CONVERTER_11
 73
     1
 44
1.20048019207683
  0
MTEXT
  5
445
330
74
100
AcDbEntity
  8
1
 62
     2
100
AcDbMText
 10
-115.3324742738118
 20
30.65707210725108
 30
0.0
 40
2.0
 41
0.0
 71
     5
 72
     1
  1
 
  7
CONVERTER_11
 73
     1
 44
1.20048019207683
  0
MTEXT
  5
446
330
74
100
AcDbEntity
  8
1
 62
     2
100
AcDbMText
 10
-115.3324742738118
 20
26.40707210725108
 30
0.0
 40
2.0
 41
0.0
 71
     5
 72
     1
  1
 
  7
CONVERTER_11
 73
     1
 44
1.20048019207683
  0
MTEXT
  5
447
330
74
100
AcDbEntity
  8
1
 62
     2
100
AcDbMText
 10
-115.3324742738118
 20
22.15707210725108
 30
0.0
 40
2.0
 41
0.0
 71
     5
 72
     1
  1
 
  7
CONVERTER_11
 73
     1
 44
1.20048019207683
  0
MTEXT
  5
448
330
74
100
AcDbEntity
  8
1
 62
     2
100
AcDbMText
 10
-115.3324742738118
 20
17.90707210725108
 30
0.0
 40
2.0
 41
0.0
 71
     5
 72
     1
  1
 
  7
CONVERTER_11
 73
     1
 44
1.20048019207683
  0
MTEXT
  5
449
330
74
100
AcDbEntity
  8
1
 62
     2
100
AcDbMText
 10
-115.3324742738118
 20
13.65707210725119
 30
0.0
 40
2.0
 41
0.0
 71
     5
 72
     1
  1
 
  7
CONVERTER_11
 73
     1
 44
1.20048019207683
  0
MTEXT
  5
44A
330
74
100
AcDbEntity
  8
1
 62
     2
100
AcDbMText
 10
-191.087669747062
 20
34.90707210725108
 30
0.0
 40
2.0
 41
0.0
 71
     5
 72
     1
  1
 
  7
CONVERTER_11
 73
     1
 44
1.20048019207683
  0
MTEXT
  5
44B
330
74
100
AcDbEntity
  8
1
 62
     2
100
AcDbMText
 10
-191.087669747062
 20
30.65707210725108
 30
0.0
 40
2.0
 41
0.0
 71
     5
 72
     1
  1
 
  7
CONVERTER_11
 73
     1
 44
1.20048019207683
  0
MTEXT
  5
44C
330
74
100
AcDbEntity
  8
1
 62
     2
100
AcDbMText
 10
-191.087669747062
 20
26.40707210725108
 30
0.0
 40
2.0
 41
0.0
 71
     5
 72
     1
  1
 
  7
CONVERTER_11
 73
     1
 44
1.20048019207683
  0
MTEXT
  5
44D
330
74
100
AcDbEntity
  8
1
 62
     2
100
AcDbMText
 10
-191.087669747062
 20
22.15707210725108
 30
0.0
 40
2.0
 41
0.0
 71
     5
 72
     1
  1
 
  7
CONVERTER_11
 73
     1
 44
1.20048019207683
  0
MTEXT
  5
44E
330
74
100
AcDbEntity
  8
1
 62
     2
100
AcDbMText
 10
-191.087669747062
 20
17.90707210725108
 30
0.0
 40
2.0
 41
0.0
 71
     5
 72
     1
  1
 
  7
CONVERTER_11
 73
     1
 44
1.20048019207683
  0
MTEXT
  5
44F
330
74
100
AcDbEntity
  8
1
 62
     2
100
AcDbMText
 10
-191.087669747062
 20
13.65707210725119
 30
0.0
 40
2.0
 41
0.0
 71
     5
 72
     1
  1
 
  7
CONVERTER_11
 73
     1
 44
1.20048019207683
  0
MTEXT
  5
450
330
74
100
AcDbEntity
  8
1
 62
     2
100
AcDbMText
 10
-200.937669747061
 20
13.65707210725119
 30
0.0
 40
2.0
 41
0.0
 71
     5
 72
     1
  1
 
  7
CONVERTER_11
 73
     1
 44
1.20048019207683
  0
MTEXT
  5
451
330
74
100
AcDbEntity
  8
1
 62
     2
100
AcDbMText
 10
-200.937669747061
 20
17.90707210725108
 30
0.0
 40
2.0
 41
0.0
 71
     5
 72
     1
  1
 
  7
CONVERTER_11
 73
     1
 44
1.20048019207683
  0
MTEXT
  5
452
330
74
100
AcDbEntity
  8
1
 62
     2
100
AcDbMText
 10
-200.937669747061
 20
22.15707210725108
 30
0.0
 40
2.0
 41
0.0
 71
     5
 72
     1
  1
 
  7
CONVERTER_11
 73
     1
 44
1.20048019207683
  0
MTEXT
  5
453
330
74
100
AcDbEntity
  8
1
 62
     2
100
AcDbMText
 10
-200.937669747061
 20
26.40707210725108
 30
0.0
 40
2.0
 41
0.0
 71
     5
 72
     1
  1
 
  7
CONVERTER_11
 73
     1
 44
1.20048019207683
  0
MTEXT
  5
454
330
74
100
AcDbEntity
  8
1
 62
     2
100
AcDbMText
 10
-200.937669747061
 20
30.65707210725108
 30
0.0
 40
2.0
 41
0.0
 71
     5
 72
     1
  1
 
  7
CONVERTER_11
 73
     1
 44
1.20048019207683
  0
MTEXT
  5
455
330
74
100
AcDbEntity
  8
1
 62
     2
100
AcDbMText
 10
-200.937669747061
 20
34.90707210725108
 30
0.0
 40
2.0
 41
0.0
 71
     5
 72
     1
  1
 
  7
CONVERTER_11
 73
     1
 44
1.20048019207683
  0
MTEXT
  5
456
330
74
100
AcDbEntity
  8
1
 62
     2
100
AcDbMText
 10
-14.53766974705952
 20
27.53207210725108
 30
0.0
 40
1.8
 41
0.0
 71
     1
 72
     1
  1
part-rev.
  7
CONVERTER_13
 73
     1
 44
1.20048019207683
  0
MTEXT
  5
457
330
74
100
AcDbEntity
  8
1
 62
     2
100
AcDbMText
 10
3.9623302529401
 20
23.28207210725108
 30
0.0
 40
1.8
 41
0.0
 71
     1
 72
     1
  1
surface in um
  7
CONVERTER_11
 73
     1
 44
1.32052821128451
  0
MTEXT
  5
458
330
74
100
AcDbEntity
  8
1
 62
     7
100
AcDbMText
 10
50.46233025293719
 20
82.28207210725301
 30
0.0
 40
3.5
 41
0.0
 71
     5
 72
     1
  1
C
  7
CONVERTER_11
 73
     1
 44
1.20048019207683
  0
MTEXT
  5
459
330
74
100
AcDbEntity
  8
1
 62
     7
100
AcDbMText
 10
50.46233025293719
 20
184.7820721072511
 30
0.0
 40
3.5
 41
0.0
 71
     5
 72
     1
  1
A
  7
CONVERTER_11
 73
     1
 44
1.20048019207683
  0
MTEXT
  5
45A
330
74
100
AcDbEntity
  8
1
 62
     7
100
AcDbMText
 10
50.46233025293719
 20
132.282072107253
 30
0.0
 40
3.5
 41
0.0
 71
     5
 72
     1
  1
B
  7
CONVERTER_11
 73
     1
 44
1.20048019207683
  0
MTEXT
  5
45B
330
74
100
AcDbEntity
  8
1
 62
     7
100
AcDbMText
 10
50.46233025293719
 20
29.78207210725108
 30
0.0
 40
3.5
 41
0.0
 71
     5
 72
     1
  1
D
  7
CONVERTER_11
 73
     1
 44
1.20048019207683
  0
MTEXT
  5
45C
330
74
100
AcDbEntity
  8
1
 62
     3
100
AcDbMText
 10
-239.03260196099
 20
194.0733802625499
 30
0.0
 40
1.8
 41
0.0
 71
     7
 72
     1
  3
Weitergabe sowie Vervielf\U+00e4ltigung dieses Dokuments, Verwertung und\PMitteilung seines Inhalts gem\U+00e4\U+00df \U+00a718 UWG verboten, soweit nicht aus-\Pdr\U+00fccklich gestattet. Zuwiderhandlungen verpflichten zu Schadenersatz\P(\U+00a719 U
  1
WG). Alle Rechte vorbehalten, insbesondere das Recht, Patent-,\PGebrauchsmuster- oder Geschmacksmusteranmeldungen durchzuf\U+00fchren.\PPhoenix Contact GmbH & Co. KG
  7
CONVERTER_11
 73
     1
 44
0.99639855942377
  0
MTEXT
  5
45D
330
74
100
AcDbEntity
  8
1
 62
     3
100
AcDbMText
 10
-66.17949212220194
 20
194.0733802625499
 30
0.0
 40
1.8
 41
0.0
 71
     7
 72
     1
  3
The copying, distribution and utilistion of this document as well as the communication\Pof the contents to others without expressed authorization is prohibited according to\P\U+00a718 UWG German Law. Offenders will be held liable for the payment of 
  1
damages\Paccording to (\U+00a719 UWG German Law). All rights reserved, in particular the right to\Pcarry out patent, utility model or ornamental design registrations.\PFlachsmarktstra\U+00dfe 8  D-32825 Blomberg
  7
CONVERTER_11
 73
     1
 44
0.99639855942377
  0
MTEXT
  5
45E
330
74
100
AcDbEntity
  8
1
 62
     7
100
AcDbMText
 10
-219.7876697470615
 20
4.78207210725108
 30
0.0
 40
3.5
 41
0.0
 71
     5
 72
     1
  1
1
  7
CONVERTER_11
 73
     1
 44
1.20048019207683
  0
MTEXT
  5
45F
330
74
100
AcDbEntity
  8
1
 62
     7
100
AcDbMText
 10
-170.5376697470619
 20
4.78207210725108
 30
0.0
 40
3.5
 41
0.0
 71
     5
 72
     1
  1
2
  7
CONVERTER_11
 73
     1
 44
1.20048019207683
  0
MTEXT
  5
460
330
74
100
AcDbEntity
  8
1
 62
     7
100
AcDbMText
 10
-120.5376697470619
 20
4.78207210725108
 30
0.0
 40
3.5
 41
0.0
 71
     5
 72
     1
  1
3
  7
CONVERTER_11
 73
     1
 44
1.20048019207683
  0
MTEXT
  5
461
330
74
100
AcDbEntity
  8
1
 62
     7
100
AcDbMText
 10
-70.53766974706194
 20
4.78207210725108
 30
0.0
 40
3.5
 41
0.0
 71
     5
 72
     1
  1
4
  7
CONVERTER_11
 73
     1
 44
1.20048019207683
  0
MTEXT
  5
462
330
74
100
AcDbEntity
  8
1
 62
     7
100
AcDbMText
 10
-20.53766974706189
 20
4.78207210725108
 30
0.0
 40
3.5
 41
0.0
 71
     5
 72
     1
  1
5
  7
CONVERTER_11
 73
     1
 44
1.20048019207683
  0
MTEXT
  5
463
330
74
100
AcDbEntity
  8
1
 62
     7
100
AcDbMText
 10
28.71233025293739
 20
4.78207210725108
 30
0.0
 40
3.5
 41
0.0
 71
     5
 72
     1
  1
6
  7
CONVERTER_11
 73
     1
 44
1.20048019207683
  0
MTEXT
  5
464
330
74
100
AcDbEntity
  8
1
 62
     7
100
AcDbMText
 10
-241.5376697470609
 20
184.7820721072511
 30
0.0
 40
3.5
 41
0.0
 71
     5
 72
     1
  1
A
  7
CONVERTER_11
 73
     1
 44
1.20048019207683
  0
MTEXT
  5
465
330
74
100
AcDbEntity
  8
1
 62
     7
100
AcDbMText
 10
-241.5376697470609
 20
132.2820721072511
 30
0.0
 40
3.5
 41
0.0
 71
     5
 72
     1
  1
B
  7
CONVERTER_11
 73
     1
 44
1.20048019207683
  0
MTEXT
  5
466
330
74
100
AcDbEntity
  8
1
 62
     7
100
AcDbMText
 10
-241.5376697470609
 20
82.28207210725108
 30
0.0
 40
3.5
 41
0.0
 71
     5
 72
     1
  1
C
  7
CONVERTER_11
 73
     1
 44
1.20048019207683
  0
MTEXT
  5
467
330
74
100
AcDbEntity
  8
1
 62
     7
100
AcDbMText
 10
-241.5376697470609
 20
29.78207210725108
 30
0.0
 40
3.5
 41
0.0
 71
     5
 72
     1
  1
D
  7
CONVERTER_11
 73
     1
 44
1.20048019207683
  0
MTEXT
  5
468
330
74
100
AcDbEntity
  8
1
 62
     2
100
AcDbMText
 10
31.3807385346189
 20
36.03207210725108
 30
0.0
 40
1.8
 41
0.0
 71
     1
 72
     1
  1
dim.var.
  7
CONVERTER_11
 73
     1
 44
1.20048019207683
  0
MTEXT
  5
46A
330
74
100
AcDbEntity
  8
1
 62
     2
100
AcDbMText
 10
-14.53766974705952
 20
23.28207210725108
 30
0.0
 40
1.8
 41
0.0
 71
     1
 72
     1
  1
document-No.
  7
CONVERTER_15
 73
     1
 44
1.32052821128451
  0
TEXT
  5
46B
330
74
100
AcDbEntity
  8
1
 62
     2
100
AcDbText
 10
-62.38247427381194
 20
8.52305489225952
 30
0.0
 40
1.8
  1
of
 41
0.9
  7
CONVERTER_11
100
AcDbText
  0
TEXT
  5
46C
330
74
100
AcDbEntity
  8
1
 62
     2
100
AcDbText
 10
-80.58247427381181
 20
8.52305489225941
 30
0.0
 40
1.8
  1
page
 41
0.9
  7
CONVERTER_11
100
AcDbText
  0
MTEXT
  5
46D
330
74
100
AcDbEntity
  8
1
 62
     2
100
AcDbMText
 10
-88.33247427381191
 20
8.53207210725108
 30
0.0
 40
1.8
 41
0.0
 71
     8
 72
     1
  1
name
  7
CONVERTER_11
 73
     1
 44
1.32052821128451
  0
MTEXT
  5
46E
330
74
100
AcDbEntity
  8
1
 62
     2
100
AcDbMText
 10
-101.8324742738118
 20
8.53207210725108
 30
0.0
 40
1.8
 41
0.0
 71
     8
 72
     1
  1
check.on
  7
CONVERTER_11
 73
     1
 44
1.32052821128451
  0
MTEXT
  5
46F
330
74
100
AcDbEntity
  8
1
 62
     2
100
AcDbMText
 10
-115.3324742738118
 20
8.53207210725108
 30
0.0
 40
1.8
 41
0.0
 71
     8
 72
     1
  1
name
  7
CONVERTER_11
 73
     1
 44
1.32052821128451
  0
MTEXT
  5
470
330
74
100
AcDbEntity
  8
1
 62
     2
100
AcDbMText
 10
-191.087669747062
 20
8.53207210725108
 30
0.0
 40
1.8
 41
0.0
 71
     8
 72
     1
  1
date
  7
CONVERTER_11
 73
     1
 44
1.32052821128451
  0
MTEXT
  5
471
330
74
100
AcDbEntity
  8
1
 62
     2
100
AcDbMText
 10
-21.05728511622041
 20
36.03207210725091
 30
0.0
 40
1.8
 41
0.0
 71
     1
 72
     1
  1
material
  7
CONVERTER_11
 73
     1
 44
1.20048019207683
  0
MTEXT
  5
472
330
74
100
AcDbEntity
  8
1
 62
     2
100
AcDbMText
 10
-200.937669747061
 20
8.53207210725108
 30
0.0
 40
1.8
 41
0.0
 71
     8
 72
     1
  1
RI
  7
CONVERTER_11
 73
     1
 44
1.32052821128451
  0
MTEXT
  5
473
330
74
100
AcDbEntity
  8
1
 62
     2
100
AcDbMText
 10
-65.43247427381193
 20
33.98207210725113
 30
0.0
 40
1.8
 41
0.0
 71
     8
 72
     1
  1
date
  7
CONVERTER_11
 73
     1
 44
1.32052821128451
  0
MTEXT
  5
474
330
74
100
AcDbEntity
  8
1
 62
     2
100
AcDbMText
 10
-51.93247427381195
 20
33.98207210725113
 30
0.0
 40
1.8
 41
0.0
 71
     8
 72
     1
  1
name
  7
CONVERTER_11
 73
     1
 44
1.32052821128451
  0
MTEXT
  5
475
330
74
100
AcDbEntity
  8
1
 62
     2
100
AcDbMText
 10
-153.2100720104369
 20
8.53207210725108
 30
0.0
 40
1.8
 41
0.0
 71
     8
 72
     1
  1
revision
  7
CONVERTER_11
 73
     1
 44
1.32052821128451
  0
MTEXT
  5
476
330
74
100
AcDbEntity
  8
1
 62
     2
100
AcDbMText
 10
22.26233025293999
 20
36.03207210725108
 30
0.0
 40
1.8
 41
0.0
 71
     1
 72
     1
  1
scale
  7
CONVERTER_11
 73
     1
 44
1.20048019207683
  0
MTEXT
  5
477
330
74
100
AcDbEntity
  8
1
 62
     2
100
AcDbMText
 10
-76.88247427381184
 20
30.65707210725108
 30
0.0
 40
1.8
 41
0.0
 71
     5
 72
     1
  1
creat.
  7
CONVERTER_11
 73
     1
 44
1.20048019207683
  0
MTEXT
  5
478
330
74
100
AcDbEntity
  8
1
 62
     2
100
AcDbMText
 10
-76.88247427381184
 20
26.40707210725108
 30
0.0
 40
1.8
 41
0.0
 71
     5
 72
     1
  1
check.
  7
CONVERTER_11
 73
     1
 44
1.20048019207683
  0
MTEXT
  5
479
330
74
100
AcDbEntity
  8
1
 62
     3
100
AcDbMText
 10
-55.38247427381194
 20
22.15707210725119
 30
0.0
 40
2.5
 41
0.0
 71
     5
 72
     1
  1
DIN A4
  7
CONVERTER_11
 73
     1
 44
1.20048019207683
  0
MTEXT
  5
47A
330
74
100
AcDbEntity
  8
1
 62
     2
100
AcDbMText
 10
-44.0824742738119
 20
36.03207210725108
 30
0.0
 40
1.8
 41
0.0
 71
     1
 72
     1
  1
ident.-No. / RI
  7
CONVERTER_11
 73
     1
 44
1.20048019207683
  0
TEXT
  5
47B
330
74
100
AcDbEntity
  8
1
 62
     2
100
AcDbText
 10
-71.93620930346974
 20
8.48282345344913
 30
0.0
 40
1.8
  1
1
 41
0.9
  7
CONVERTER_11
100
AcDbText
  0
TEXT
  5
47C
330
74
100
AcDbEntity
  8
1
 62
     2
100
AcDbText
 10
-57.14716546399824
 20
8.53207210725108
 30
0.0
 40
1.8
  1
1
 41
0.9
  7
CONVERTER_11
100
AcDbText
  0
MTEXT
  5
47D
330
74
100
AcDbEntity
  8
1
 62
     2
100
AcDbMText
 10
-44.18247427381191
 20
14.78207210725108
 30
0.0
 40
1.8
 41
0.0
 71
     1
 72
     1
  1
description
  7
CONVERTER_11
 73
     1
 44
1.20048019207683
  0
MTEXT
  5
47E
330
74
100
AcDbEntity
  8
1
 62
     2
100
AcDbMText
 10
-76.88247427381184
 20
33.98207210725113
 30
0.0
 40
1.8
 41
0.0
 71
     8
 72
     1
  1
00
  7
CONVERTER_11
 73
     1
 44
1.20048019207683
  0
MTEXT
  5
47F
330
74
100
AcDbEntity
  8
1
 62
     2
100
AcDbMText
 10
-44.18247427381191
 20
23.28207210725102
 30
0.0
 40
1.8
 41
0.0
 71
     1
 72
     1
  1
document-type
  7
CONVERTER_11
 73
     1
 44
1.20048019207683
  0
MTEXT
  5
480
330
74
100
AcDbEntity
  8
1
 62
     2
100
AcDbMText
 10
-51.93247427381195
 20
26.40707210725108
 30
0.0
 40
1.8
 41
0.0
 71
     5
 72
     1
  1
pbam06
  7
CONVERTER_11
 73
     1
 44
1.32052821128451
  0
MTEXT
  5
481
330
74
100
AcDbEntity
  8
1
 62
     2
100
AcDbMText
 10
-51.93247427381195
 20
30.65707210725108
 30
0.0
 40
1.8
 41
0.0
 71
     5
 72
     1
  1
pbfm09
  7
CONVERTER_11
 73
     1
 44
1.32052821128451
  0
MTEXT
  5
482
330
74
100
AcDbEntity
  8
1
 62
     2
100
AcDbMText
 10
-65.43247427381189
 20
26.40707210725108
 30
0.0
 40
1.8
 41
0.0
 71
     5
 72
     1
  1
12.11.14
  7
CONVERTER_11
 73
     1
 44
1.32052821128451
  0
MTEXT
  5
483
330
74
100
AcDbEntity
  8
1
 62
     2
100
AcDbMText
 10
-65.43247427381189
 20
30.65707210725108
 30
0.0
 40
1.8
 41
0.0
 71
     5
 72
     1
  1
08.11.14
  7
CONVERTER_11
 73
     1
 44
1.32052821128451
  0
TEXT
  5
484
330
74
100
AcDbEntity
  8
1
 62
     7
100
AcDbText
 10
-29.2089265517981
 20
29.83207210725108
 30
0.0
 40
2.5
  1
/
 41
0.9
  7
CONVERTER_11
100
AcDbText
  0
TEXT
  5
486
330
74
100
AcDbEntity
  8
1
 62
     3
100
AcDbText
 10
3.9623302529401
 20
17.08207210725108
 30
0.0
 40
2.5
  1
 
 41
0.54
  7
CONVERTER_16
100
AcDbText
  0
MTEXT
  5
488
330
74
100
AcDbEntity
  8
1
 62
     7
100
AcDbMText
 10
1.3899279895636
 20
10.53207210725131
 30
0.0
 40
3.0
 41
0.0
 71
     5
 72
     1
  1
WST 2,5
  7
CONVERTER_17
 73
     1
 44
1.20048019207683
  0
MTEXT
  5
489
330
74
100
AcDbEntity
  8
1
 62
     3
100
AcDbMText
 10
25.62153439377951
 20
29.83207210725119
 30
0.0
 40
2.5
 41
0.0
 71
     8
 72
     1
  1
2:1
  7
CONVERTER_13
 73
     1
 44
1.32052821128451
  0
TEXT
  5
48A
330
74
100
AcDbEntity
  8
1
 62
     3
100
AcDbText
 10
-21.28247427381189
 20
29.83207210725108
 30
0.0
 40
2.5
  1
-
 41
0.54
  7
CONVERTER_16
100
AcDbText
  0
TEXT
  5
48B
330
74
100
AcDbEntity
  8
1
 62
     7
100
AcDbText
 10
-43.6824742738121
 20
29.83207210725108
 30
0.0
 40
2.5
  1
3030941
 41
0.81
  7
CONVERTER_17
100
AcDbText
  0
TEXT
  5
48C
330
74
100
AcDbEntity
  8
1
 62
     7
100
AcDbText
 10
-14.53766974705952
 20
17.08207210725108
 30
0.0
 40
2.5
  1
00833000
 41
0.81
  7
CONVERTER_17
100
AcDbText
  0
TEXT
  5
48D
330
74
100
AcDbEntity
  8
1
 62
     3
100
AcDbText
 10
31.080738534619
 20
29.83207210725108
 30
0.0
 40
2.5
  1
 
 41
0.54
  7
CONVERTER_16
100
AcDbText
  0
TEXT
  5
48F
330
74
100
AcDbEntity
  8
1
 62
     3
100
AcDbText
 10
-44.18247427381191
 20
17.08207210725108
 30
0.0
 40
2.5
  1
KUNDENZCHNG-SELECT
 41
0.45
  7
CONVERTER_18
100
AcDbText
  0
TEXT
  5
490
330
74
100
AcDbEntity
  8
1
 62
     7
100
AcDbText
 10
-27.05256205475609
 20
29.83207210725108
 30
0.0
 40
2.5
  1
01
 41
0.81
  7
CONVERTER_17
100
AcDbText
  0
MTEXT
  5
491
330
74
100
AcDbEntity
  8
1
 62
     3
100
AcDbMText
 10
-4.3306498604515
 20
27.63207210725108
 30
0.0
 40
2.0
 41
0.0
 71
     1
 72
     1
  1
Verlagerung nach PxCW
  7
CONVERTER_13
 73
     1
 44
1.20048019207683
  0
HATCH
  5
492
330
74
100
AcDbEntity
  8
1
  6
Continuous
 62
     2
100
AcDbHatch
 10
0.0
 20
0.0
 30
0.0
210
0.0
220
0.0
230
1.0
  2
_USER
 70
     0
 71
     1
 91
        1
 92
        1
 93
       14
 72
     2
 10
-68.30707817800794
 20
14.39397686916223
 40
0.9964100565214622
 50
164.9381082228799
 51
195.0618917770962
 73
     1
 72
     2
 10
-67.96069153051803
 20
14.48719204439762
 40
1.355119937140023
 50
195.0618917770909
 51
275.1581447696391
 73
     1
 72
     2
 10
-68.1994155757543
 20
17.13172971648158
 40
4.010410630990213
 50
275.1581447696246
 51
285.9799912583532
 73
     1
 72
     1
 10
-67.09534291697923
 20
13.27628979433213
 11
-67.09534291697923
 21
13.99737822970672
 72
     2
 10
-68.06894212526436
 20
15.55965155131817
 40
1.840813230556011
 50
58.0690910500376
 51
71.55192388186683
 73
     0
 72
     2
 10
-67.72334895694962
 20
14.52366330665935
 40
0.7487023016403824
 50
71.55192388184291
 51
113.3722778881291
 73
     0
 72
     2
 10
-67.85263824017443
 20
14.22449634904777
 40
0.422793438177528
 50
113.372277888174
 51
151.4785267423084
 73
     0
 72
     2
 10
-67.54077273762869
 20
14.39397686916223
 40
0.7777353184572794
 50
151.4785267422971
 51
208.5214732577313
 73
     0
 72
     2
 10
-67.85263824017443
 20
14.56345738927714
 40
0.4227934381775693
 50
208.5214732576904
 51
246.6277221118017
 73
     0
 72
     2
 10
-67.72334895694962
 20
14.26429043166509
 40
0.7487023016407717
 50
246.6277221118715
 51
288.4480761181457
 73
     0
 72
     2
 10
-68.06894212526436
 20
13.22830218700673
 40
1.840813230556617
 50
288.4480761181331
 51
301.9309089499624
 73
     0
 72
     1
 10
-67.09534291697923
 20
14.79057550861818
 11
-67.09534291697923
 21
15.51166394399277
 72
     2
 10
-68.1994155757543
 20
11.65622402184333
 40
4.010410630990089
 50
74.02000874164679
 51
84.84185523037543
 73
     1
 72
     2
 10
-67.96069153051803
 20
14.30076169392682
 40
1.355119937140908
 50
84.84185523036265
 51
164.9381082228906
 73
     1
 97
       14
330
426
330
2B0
330
3F5
330
425
330
3F6
330
3F7
330
424
330
423
330
422
330
2B1
330
3F8
330
3F9
330
3FA
330
3FB
 75
     1
 76
     0
 52
45.0
 41
0.1
 77
     0
 78
     1
 53
45.0
 43
0.0
 44
0.0
 45
-0.0707106781186548
 46
0.0707106781186548
 79
     0
 98
        1
 10
0.0
 20
0.0
  0
HATCH
  5
493
330
74
100
AcDbEntity
  8
1
  6
Continuous
 62
     2
100
AcDbHatch
 10
0.0
 20
0.0
 30
0.0
210
0.0
220
0.0
230
1.0
  2
_USER
 70
     0
 71
     1
 91
        1
 92
        1
 93
       14
 72
     2
 10
-68.30707817800794
 20
14.39397686916223
 40
0.9964100565214622
 50
164.9381082228799
 51
195.0618917770962
 73
     1
 72
     2
 10
-67.96069153051803
 20
14.48719204439762
 40
1.355119937140023
 50
195.0618917770909
 51
275.1581447696391
 73
     1
 72
     2
 10
-68.1994155757543
 20
17.13172971648158
 40
4.010410630990213
 50
275.1581447696246
 51
285.9799912583532
 73
     1
 72
     1
 10
-67.09534291697923
 20
13.27628979433213
 11
-67.09534291697923
 21
13.99737822970672
 72
     2
 10
-68.06894212526436
 20
15.55965155131817
 40
1.840813230556011
 50
58.0690910500376
 51
71.55192388186683
 73
     0
 72
     2
 10
-67.72334895694962
 20
14.52366330665935
 40
0.7487023016403824
 50
71.55192388184291
 51
113.3722778881291
 73
     0
 72
     2
 10
-67.85263824017443
 20
14.22449634904777
 40
0.422793438177528
 50
113.372277888174
 51
151.4785267423084
 73
     0
 72
     2
 10
-67.54077273762869
 20
14.39397686916223
 40
0.7777353184572794
 50
151.4785267422971
 51
208.5214732577313
 73
     0
 72
     2
 10
-67.85263824017443
 20
14.56345738927714
 40
0.4227934381775693
 50
208.5214732576904
 51
246.6277221118017
 73
     0
 72
     2
 10
-67.72334895694962
 20
14.26429043166509
 40
0.7487023016407717
 50
246.6277221118715
 51
288.4480761181457
 73
     0
 72
     2
 10
-68.06894212526436
 20
13.22830218700673
 40
1.840813230556617
 50
288.4480761181331
 51
301.9309089499624
 73
     0
 72
     1
 10
-67.09534291697923
 20
14.79057550861818
 11
-67.09534291697923
 21
15.51166394399277
 72
     2
 10
-68.1994155757543
 20
11.65622402184333
 40
4.010410630990089
 50
74.02000874164679
 51
84.84185523037543
 73
     1
 72
     2
 10
-67.96069153051803
 20
14.30076169392682
 40
1.355119937140908
 50
84.84185523036265
 51
164.9381082228906
 73
     1
 97
       14
330
426
330
2B0
330
3F5
330
425
330
3F6
330
3F7
330
424
330
423
330
422
330
2B1
330
3F8
330
3F9
330
3FA
330
3FB
 75
     1
 76
     0
 52
45.0
 41
0.1
 77
     0
 78
     1
 53
45.0
 43
0.0
 44
0.0
 45
-0.0707106781186548
 46
0.0707106781186548
 79
     0
 98
        1
 10
0.0
 20
0.0
  0
HATCH
  5
494
330
74
100
AcDbEntity
  8
1
  6
Continuous
 62
     2
100
AcDbHatch
 10
0.0
 20
0.0
 30
0.0
210
0.0
220
0.0
230
1.0
  2
_USER
 70
     0
 71
     1
 91
        1
 92
        1
 93
       18
 72
     2
 10
-54.65267377906935
 20
14.30076169392682
 40
1.355119937140591
 50
90.0
 51
164.9381082228992
 73
     1
 72
     2
 10
-54.99906042655834
 20
14.39397686916223
 40
0.996410056523109
 50
164.9381082229054
 51
195.0618917770958
 73
     1
 72
     2
 10
-54.65267377906935
 20
14.48719204439762
 40
1.355119937140895
 50
195.0618917771008
 51
275.158144769676
 73
     1
 72
     2
 10
-54.89139782430561
 20
17.13172971648158
 40
4.010410630990744
 50
275.1581447696369
 51
285.9799912583388
 73
     1
 72
     1
 10
-53.78732516553146
 20
13.27628979433169
 11
-53.78732516553146
 21
13.99737822970626
 72
     2
 10
-54.76092437381567
 20
15.55965155131771
 40
1.840813230556003
 50
58.06909105006183
 51
71.55192388186671
 73
     0
 72
     2
 10
-54.41533120550002
 20
14.52366330665935
 40
0.7487023016407038
 50
71.55192388192036
 51
113.372277888186
 73
     0
 72
     2
 10
-54.54462048872574
 20
14.22449634904777
 40
0.4227934381785468
 50
113.3722778881607
 51
151.4785267423125
 73
     0
 72
     2
 10
-54.23275498617909
 20
14.39397686916223
 40
0.777735318458663
 50
151.4785267423313
 51
208.5214732576382
 73
     0
 72
     2
 10
-54.54462048872574
 20
14.56345738927714
 40
0.4227934381772261
 50
208.521473257578
 51
250.662856780514
 73
     0
 72
     2
 10
-54.42340561425988
 20
14.21804005011771
 40
0.7888619891124407
 50
250.6628567805685
 51
270.0
 73
     0
 72
     1
 10
-54.42340561425988
 20
15.00690203923015
 11
-53.5113070195755
 21
15.00690203923015
 72
     1
 10
-53.5113070195755
 20
15.00690203923015
 11
-53.5113070195755
 21
13.13207210725704
 72
     1
 10
-53.5113070195755
 20
13.13207210725704
 11
-52.52552792687493
 21
13.13207210725704
 72
     1
 10
-52.52552792687493
 20
13.13207210725704
 11
-52.52552792687493
 21
15.00690203923015
 72
     1
 10
-52.52552792687493
 20
15.00690203923015
 11
-51.85519814383906
 21
15.00690203923015
 72
     1
 10
-51.85519814383906
 20
15.00690203923015
 11
-51.85519814383906
 21
15.65588163106787
 72
     1
 10
-51.85519814383906
 20
15.65588163106787
 11
-54.65267377906935
 21
15.65588163106741
 97
       18
330
316
330
315
330
314
330
313
330
318
330
2B2
330
41F
330
400
330
41E
330
401
330
41D
330
41C
330
2B3
330
41B
330
41A
330
402
330
403
330
317
 75
     1
 76
     0
 52
45.0
 41
0.1
 77
     0
 78
     1
 53
45.0
 43
0.0
 44
0.0
 45
-0.0707106781186548
 46
0.0707106781186548
 79
     0
 98
        1
 10
0.0
 20
0.0
  0
HATCH
  5
495
330
74
100
AcDbEntity
  8
1
  6
Continuous
 62
     2
100
AcDbHatch
 10
0.0
 20
0.0
 30
0.0
210
0.0
220
0.0
230
1.0
  2
_USER
 70
     0
 71
     1
 91
        1
 92
        1
 93
       18
 72
     2
 10
-54.65267377906935
 20
14.30076169392682
 40
1.355119937140591
 50
90.0
 51
164.9381082228992
 73
     1
 72
     2
 10
-54.99906042655834
 20
14.39397686916223
 40
0.996410056523109
 50
164.9381082229054
 51
195.0618917770958
 73
     1
 72
     2
 10
-54.65267377906935
 20
14.48719204439762
 40
1.355119937140895
 50
195.0618917771008
 51
275.158144769676
 73
     1
 72
     2
 10
-54.89139782430561
 20
17.13172971648158
 40
4.010410630990744
 50
275.1581447696369
 51
285.9799912583388
 73
     1
 72
     1
 10
-53.78732516553146
 20
13.27628979433169
 11
-53.78732516553146
 21
13.99737822970626
 72
     2
 10
-54.76092437381567
 20
15.55965155131771
 40
1.840813230556003
 50
58.06909105006183
 51
71.55192388186671
 73
     0
 72
     2
 10
-54.41533120550002
 20
14.52366330665935
 40
0.7487023016407038
 50
71.55192388192036
 51
113.372277888186
 73
     0
 72
     2
 10
-54.54462048872574
 20
14.22449634904777
 40
0.4227934381785468
 50
113.3722778881607
 51
151.4785267423125
 73
     0
 72
     2
 10
-54.23275498617909
 20
14.39397686916223
 40
0.777735318458663
 50
151.4785267423313
 51
208.5214732576382
 73
     0
 72
     2
 10
-54.54462048872574
 20
14.56345738927714
 40
0.4227934381772261
 50
208.521473257578
 51
250.662856780514
 73
     0
 72
     2
 10
-54.42340561425988
 20
14.21804005011771
 40
0.7888619891124407
 50
250.6628567805685
 51
270.0
 73
     0
 72
     1
 10
-54.42340561425988
 20
15.00690203923015
 11
-53.5113070195755
 21
15.00690203923015
 72
     1
 10
-53.5113070195755
 20
15.00690203923015
 11
-53.5113070195755
 21
13.13207210725704
 72
     1
 10
-53.5113070195755
 20
13.13207210725704
 11
-52.52552792687493
 21
13.13207210725704
 72
     1
 10
-52.52552792687493
 20
13.13207210725704
 11
-52.52552792687493
 21
15.00690203923015
 72
     1
 10
-52.52552792687493
 20
15.00690203923015
 11
-51.85519814383906
 21
15.00690203923015
 72
     1
 10
-51.85519814383906
 20
15.00690203923015
 11
-51.85519814383906
 21
15.65588163106787
 72
     1
 10
-51.85519814383906
 20
15.65588163106787
 11
-54.65267377906935
 21
15.65588163106741
 97
       18
330
316
330
315
330
314
330
313
330
318
330
2B2
330
41F
330
400
330
41E
330
401
330
41D
330
41C
330
2B3
330
41B
330
41A
330
402
330
403
330
317
 75
     1
 76
     0
 52
45.0
 41
0.1
 77
     0
 78
     1
 53
45.0
 43
0.0
 44
0.0
 45
-0.0707106781186548
 46
0.0707106781186548
 79
     0
 98
        1
 10
0.0
 20
0.0
  0
HATCH
  5
496
330
74
100
AcDbEntity
  8
1
  6
Continuous
 62
     2
100
AcDbHatch
 10
0.0
 20
0.0
 30
0.0
210
0.0
220
0.0
230
1.0
  2
_USER
 70
     0
 71
     1
 91
        4
 92
        1
 93
        8
 72
     2
 10
-74.57181352840246
 20
18.08145672261529
 40
0.3506153846147413
 50
90.0
 51
180.0
 73
     1
 72
     1
 10
-74.92242891301635
 20
18.08145672261529
 11
-74.92242891301635
 21
13.48268749187132
 72
     2
 10
-74.57181352840246
 20
13.48268749187132
 40
0.3506153846138886
 50
180.0
 51
270.0
 73
     1
 72
     1
 10
-74.57181352840246
 20
13.13207210725704
 11
-70.04841510632241
 21
13.13207210725704
 72
     2
 10
-70.04841510632241
 20
13.48268749187132
 40
0.3506153846142812
 50
270.0
 51
360.0
 73
     1
 72
     1
 10
-69.69779972170761
 20
13.48268749187132
 11
-69.69779972170761
 21
18.08145672261529
 72
     2
 10
-70.04841510632241
 20
18.08145672261529
 40
0.3506153846147981
 50
0.0
 51
90.0
 73
     1
 72
     1
 10
-70.04841510632241
 20
18.43207210723003
 11
-74.57181352840246
 21
18.43207210723003
 97
        8
330
413
330
2E1
330
412
330
2E2
330
409
330
2DF
330
414
330
2E0
 92
       16
 93
        1
 72
     2
 10
-72.4068667097929
 20
16.16502512893305
 40
0.3892387874202541
 50
0.0
 51
360.0
 73
     1
 97
        1
330
427
 92
       16
 93
        8
 72
     2
 10
-72.38718487948483
 20
16.16502512893305
 40
0.7535935125160986
 50
295.374008678178
 51
424.6259913218071
 73
     1
 72
     2
 10
-71.9524388480072
 20
17.08167107931967
 40
0.2609230769229498
 50
115.3740086783601
 51
180.0
 73
     0
 72
     1
 10
-72.21336192493015
 20
17.08167107931967
 11
-72.21336192493015
 21
17.58211346651534
 72
     2
 10
-71.9524388480072
 20
17.58211346651534
 40
0.2609230769224181
 50
180.0
 51
269.8110329574465
 73
     0
 72
     2
 10
-71.94779741386674
 20
16.17481185695416
 40
1.668232340440702
 50
269.8110329575862
 51
450.1889670424138
 73
     0
 72
     2
 10
-71.9524388480072
 20
14.76751024739299
 40
0.2609230769229498
 50
90.18896704255353
 51
180.0
 73
     0
 72
     1
 10
-72.21336192493015
 20
14.76751024739299
 11
-72.21336192493015
 21
15.24837917854596
 72
     2
 10
-71.9524388480072
 20
15.24837917854596
 40
0.2609230769227325
 50
180.0
 51
244.625991321641
 73
     0
 97
        8
330
421
330
3FD
330
31A
330
420
330
3FE
330
3FF
330
319
330
3FC
 92
       16
 93
       12
 72
     1
 10
-74.0809914815045
 20
13.72096099614706
 11
-72.86129457157926
 21
13.72096099614706
 72
     2
 10
-72.86129457157926
 20
13.98188407306995
 40
0.2609230769228894
 50
270.0
 51
360.0
 73
     1
 72
     1
 10
-72.60037149465643
 20
13.98188407306995
 11
-72.60037149465643
 21
15.24698401648451
 72
     2
 10
-72.86129457157926
 20
15.24698401648451
 40
0.2609230769228361
 50
0.0
 51
64.8055893514401
 73
     1
 72
     2
 10
-72.42940659837677
 20
16.16502512893305
 40
0.7536343169897688
 50
115.1944106485086
 51
244.8055893514766
 73
     0
 72
     2
 10
-72.86129457157926
 20
17.08306624138113
 40
0.2609230769224065
 50
295.1944106485601
 51
360.0
 73
     1
 72
     1
 10
-72.60037149465643
 20
17.08306624138113
 11
-72.60037149465643
 21
17.58226014143119
 72
     2
 10
-72.86129457157926
 20
17.58226014143119
 40
0.2609230769228361
 50
0.0
 51
90.0
 73
     1
 72
     1
 10
-72.86129457157926
 20
17.84318321835364
 11
-74.0809914815045
 21
17.84318321835364
 72
     2
 10
-74.0809914815045
 20
17.58226014143119
 40
0.2609230769224524
 50
90.0
 51
180.0
 73
     1
 72
     1
 10
-74.34191455842654
 20
17.58226014143119
 11
-74.34191455842654
 21
13.98188407306995
 72
     2
 10
-74.0809914815045
 20
13.98188407306995
 40
0.2609230769220403
 50
180.0
 51
270.0
 73
     1
 97
       12
330
2E6
330
406
330
2E5
330
417
330
2E4
330
416
330
407
330
408
330
2E3
330
415
330
2DE
330
418
 75
     1
 76
     0
 52
45.0
 41
0.1
 77
     0
 78
     1
 53
45.0
 43
0.0
 44
0.0
 45
-0.0707106781186548
 46
0.0707106781186548
 79
     0
 98
        1
 10
0.0
 20
0.0
  0
HATCH
  5
497
330
74
100
AcDbEntity
  8
1
  6
Continuous
 62
     2
100
AcDbHatch
 10
0.0
 20
0.0
 30
0.0
210
0.0
220
0.0
230
1.0
  2
_USER
 70
     0
 71
     1
 91
        4
 92
        1
 93
        8
 72
     2
 10
-74.57181352840246
 20
18.08145672261529
 40
0.3506153846147413
 50
90.0
 51
180.0
 73
     1
 72
     1
 10
-74.92242891301635
 20
18.08145672261529
 11
-74.92242891301635
 21
13.48268749187132
 72
     2
 10
-74.57181352840246
 20
13.48268749187132
 40
0.3506153846138886
 50
180.0
 51
270.0
 73
     1
 72
     1
 10
-74.57181352840246
 20
13.13207210725704
 11
-70.04841510632241
 21
13.13207210725704
 72
     2
 10
-70.04841510632241
 20
13.48268749187132
 40
0.3506153846142812
 50
270.0
 51
360.0
 73
     1
 72
     1
 10
-69.69779972170761
 20
13.48268749187132
 11
-69.69779972170761
 21
18.08145672261529
 72
     2
 10
-70.04841510632241
 20
18.08145672261529
 40
0.3506153846147981
 50
0.0
 51
90.0
 73
     1
 72
     1
 10
-70.04841510632241
 20
18.43207210723003
 11
-74.57181352840246
 21
18.43207210723003
 97
        8
330
413
330
2E1
330
412
330
2E2
330
409
330
2DF
330
414
330
2E0
 92
       16
 93
        1
 72
     2
 10
-72.4068667097929
 20
16.16502512893305
 40
0.3892387874202541
 50
0.0
 51
360.0
 73
     1
 97
        1
330
427
 92
       16
 93
        8
 72
     2
 10
-72.38718487948483
 20
16.16502512893305
 40
0.7535935125160986
 50
295.374008678178
 51
424.6259913218071
 73
     1
 72
     2
 10
-71.9524388480072
 20
17.08167107931967
 40
0.2609230769229498
 50
115.3740086783601
 51
180.0
 73
     0
 72
     1
 10
-72.21336192493015
 20
17.08167107931967
 11
-72.21336192493015
 21
17.58211346651534
 72
     2
 10
-71.9524388480072
 20
17.58211346651534
 40
0.2609230769224181
 50
180.0
 51
269.8110329574465
 73
     0
 72
     2
 10
-71.94779741386674
 20
16.17481185695416
 40
1.668232340440702
 50
269.8110329575862
 51
450.1889670424138
 73
     0
 72
     2
 10
-71.9524388480072
 20
14.76751024739299
 40
0.2609230769229498
 50
90.18896704255353
 51
180.0
 73
     0
 72
     1
 10
-72.21336192493015
 20
14.76751024739299
 11
-72.21336192493015
 21
15.24837917854596
 72
     2
 10
-71.9524388480072
 20
15.24837917854596
 40
0.2609230769227325
 50
180.0
 51
244.625991321641
 73
     0
 97
        8
330
421
330
3FD
330
31A
330
420
330
3FE
330
3FF
330
319
330
3FC
 92
       16
 93
       12
 72
     1
 10
-74.0809914815045
 20
13.72096099614706
 11
-72.86129457157926
 21
13.72096099614706
 72
     2
 10
-72.86129457157926
 20
13.98188407306995
 40
0.2609230769228894
 50
270.0
 51
360.0
 73
     1
 72
     1
 10
-72.60037149465643
 20
13.98188407306995
 11
-72.60037149465643
 21
15.24698401648451
 72
     2
 10
-72.86129457157926
 20
15.24698401648451
 40
0.2609230769228361
 50
0.0
 51
64.8055893514401
 73
     1
 72
     2
 10
-72.42940659837677
 20
16.16502512893305
 40
0.7536343169897688
 50
115.1944106485086
 51
244.8055893514766
 73
     0
 72
     2
 10
-72.86129457157926
 20
17.08306624138113
 40
0.2609230769224065
 50
295.1944106485601
 51
360.0
 73
     1
 72
     1
 10
-72.60037149465643
 20
17.08306624138113
 11
-72.60037149465643
 21
17.58226014143119
 72
     2
 10
-72.86129457157926
 20
17.58226014143119
 40
0.2609230769228361
 50
0.0
 51
90.0
 73
     1
 72
     1
 10
-72.86129457157926
 20
17.84318321835364
 11
-74.0809914815045
 21
17.84318321835364
 72
     2
 10
-74.0809914815045
 20
17.58226014143119
 40
0.2609230769224524
 50
90.0
 51
180.0
 73
     1
 72
     1
 10
-74.34191455842654
 20
17.58226014143119
 11
-74.34191455842654
 21
13.98188407306995
 72
     2
 10
-74.0809914815045
 20
13.98188407306995
 40
0.2609230769220403
 50
180.0
 51
270.0
 73
     1
 97
       12
330
2E6
330
406
330
2E5
330
417
330
2E4
330
416
330
407
330
408
330
2E3
330
415
330
2DE
330
418
 75
     1
 76
     0
 52
45.0
 41
0.1
 77
     0
 78
     1
 53
45.0
 43
0.0
 44
0.0
 45
-0.0707106781186548
 46
0.0707106781186548
 79
     0
 98
        1
 10
0.0
 20
0.0
  0
HATCH
  5
498
330
74
100
AcDbEntity
  8
1
  6
Continuous
 62
     2
100
AcDbHatch
 10
0.0
 20
0.0
 30
0.0
210
0.0
220
0.0
230
1.0
  2
_USER
 70
     0
 71
     1
 91
        2
 92
        1
 93
       12
 72
     2
 10
-62.44357881436167
 20
17.17016734533938
 40
1.26190476190564
 50
90.0
 51
270.0
 73
     1
 72
     1
 10
-62.44357881436167
 20
15.90826258343419
 11
-59.84000879470796
 21
15.90826258343419
 72
     1
 10
-59.84000879470796
 20
15.90826258343419
 11
-59.84000879470796
 21
16.48513333173368
 72
     1
 10
-59.84000879470796
 20
16.48513333173368
 11
-60.94408137853247
 21
16.48513333173368
 72
     1
 10
-60.94408137853247
 20
16.48513333173368
 11
-60.94408137853247
 21
16.88173197118964
 72
     1
 10
-60.94408137853247
 20
16.88173197118964
 11
-59.84000879470796
 21
16.88173197118964
 72
     1
 10
-59.84000879470796
 20
16.88173197118964
 11
-59.84000879470796
 21
17.45860271948912
 72
     1
 10
-59.84000879470796
 20
17.45860271948912
 11
-60.94408137853247
 21
17.45860271948912
 72
     1
 10
-60.94408137853247
 20
17.45860271948912
 11
-60.94408137853247
 21
17.85520135894508
 72
     1
 10
-60.94408137853247
 20
17.85520135894508
 11
-59.84000879470796
 21
17.85520135894508
 72
     1
 10
-59.84000879470796
 20
17.85520135894508
 11
-59.84000879470796
 21
18.43207210724502
 72
     1
 10
-59.84000879470796
 20
18.43207210724502
 11
-62.44357881436167
 21
18.43207210724502
 97
       12
330
2D5
330
2CF
330
2F6
330
2F5
330
2F4
330
2F3
330
2D0
330
2D1
330
2D2
330
2D3
330
404
330
2D4
 92
       16
 93
        4
 72
     2
 10
-62.09976720567454
 20
17.17016734533938
 40
0.6378510567600056
 50
141.8795802028417
 51
218.1204197971583
 73
     1
 72
     2
 10
-62.26484161587803
 20
17.04063744606625
 40
0.4280236140606851
 50
218.1204197971433
 51
321.8795802028561
 73
     1
 72
     2
 10
-62.42991602608151
 20
17.17016734533938
 40
0.6378510567599944
 50
321.8795802028409
 51
398.1204197971591
 73
     1
 72
     2
 10
-62.26484161587803
 20
17.2996972446125
 40
0.4280236140606861
 50
38.12041979714503
 51
141.8795802028555
 73
     1
 97
        4
330
411
330
410
330
40B
330
40A
 75
     1
 76
     0
 52
45.0
 41
0.1
 77
     0
 78
     1
 53
45.0
 43
0.0
 44
0.0
 45
-0.0707106781186548
 46
0.0707106781186548
 79
     0
 98
        1
 10
0.0
 20
0.0
  0
HATCH
  5
499
330
74
100
AcDbEntity
  8
1
  6
Continuous
 62
     2
100
AcDbHatch
 10
0.0
 20
0.0
 30
0.0
210
0.0
220
0.0
230
1.0
  2
_USER
 70
     0
 71
     1
 91
        2
 92
        1
 93
       12
 72
     2
 10
-62.44357881436167
 20
17.17016734533938
 40
1.26190476190564
 50
90.0
 51
270.0
 73
     1
 72
     1
 10
-62.44357881436167
 20
15.90826258343419
 11
-59.84000879470796
 21
15.90826258343419
 72
     1
 10
-59.84000879470796
 20
15.90826258343419
 11
-59.84000879470796
 21
16.48513333173368
 72
     1
 10
-59.84000879470796
 20
16.48513333173368
 11
-60.94408137853247
 21
16.48513333173368
 72
     1
 10
-60.94408137853247
 20
16.48513333173368
 11
-60.94408137853247
 21
16.88173197118964
 72
     1
 10
-60.94408137853247
 20
16.88173197118964
 11
-59.84000879470796
 21
16.88173197118964
 72
     1
 10
-59.84000879470796
 20
16.88173197118964
 11
-59.84000879470796
 21
17.45860271948912
 72
     1
 10
-59.84000879470796
 20
17.45860271948912
 11
-60.94408137853247
 21
17.45860271948912
 72
     1
 10
-60.94408137853247
 20
17.45860271948912
 11
-60.94408137853247
 21
17.85520135894508
 72
     1
 10
-60.94408137853247
 20
17.85520135894508
 11
-59.84000879470796
 21
17.85520135894508
 72
     1
 10
-59.84000879470796
 20
17.85520135894508
 11
-59.84000879470796
 21
18.43207210724502
 72
     1
 10
-59.84000879470796
 20
18.43207210724502
 11
-62.44357881436167
 21
18.43207210724502
 97
       12
330
2D5
330
2CF
330
2F6
330
2F5
330
2F4
330
2F3
330
2D0
330
2D1
330
2D2
330
2D3
330
404
330
2D4
 92
       16
 93
        4
 72
     2
 10
-62.09976720567454
 20
17.17016734533938
 40
0.6378510567600056
 50
141.8795802028417
 51
218.1204197971583
 73
     1
 72
     2
 10
-62.26484161587803
 20
17.04063744606625
 40
0.4280236140606851
 50
218.1204197971433
 51
321.8795802028561
 73
     1
 72
     2
 10
-62.42991602608151
 20
17.17016734533938
 40
0.6378510567599944
 50
321.8795802028409
 51
398.1204197971591
 73
     1
 72
     2
 10
-62.26484161587803
 20
17.2996972446125
 40
0.4280236140606861
 50
38.12041979714503
 51
141.8795802028555
 73
     1
 97
        4
330
411
330
410
330
40B
330
40A
 75
     1
 76
     0
 52
45.0
 41
0.1
 77
     0
 78
     1
 53
45.0
 43
0.0
 44
0.0
 45
-0.0707106781186548
 46
0.0707106781186548
 79
     0
 98
        1
 10
0.0
 20
0.0
  0
HATCH
  5
49A
330
74
100
AcDbEntity
  8
1
  6
Continuous
 62
     2
100
AcDbHatch
 10
0.0
 20
0.0
 30
0.0
210
0.0
220
0.0
230
1.0
  2
_USER
 70
     0
 71
     1
 91
        2
 92
        1
 93
        4
 72
     2
 10
-65.77053365937127
 20
14.39397686916223
 40
1.204986845992994
 50
117.5481481756635
 51
242.451851824337
 73
     1
 72
     2
 10
-65.53835193058342
 20
14.8390801834625
 40
1.70700807620544
 50
242.4518518243401
 51
297.548148175687
 73
     1
 72
     2
 10
-65.30617020179557
 20
14.39397686916223
 40
1.204986845993433
 50
297.5481481757013
 51
422.4518518242982
 73
     1
 72
     2
 10
-65.53835193058342
 20
13.94887355486241
 40
1.707008076205444
 50
62.45185182430569
 51
117.5481481756673
 73
     1
 97
        4
330
40F
330
40C
330
40E
330
40D
 92
       16
 93
        4
 72
     2
 10
-65.53835193058342
 20
14.52350676843535
 40
0.4280236140605955
 50
38.12041979715423
 51
141.8795802028552
 73
     1
 72
     2
 10
-65.37327752038004
 20
14.39397686916223
 40
0.6378510567599095
 50
141.8795802028351
 51
218.1204197971658
 73
     1
 72
     2
 10
-65.53835193058342
 20
14.26444696988955
 40
0.4280236140609635
 50
218.1204197971923
 51
321.8795802027983
 73
     1
 72
     2
 10
-65.70342634078702
 20
14.39397686916223
 40
0.6378510567600066
 50
321.8795802028405
 51
398.1204197971587
 73
     1
 97
        4
330
3F2
330
3F3
330
3F4
330
3F1
 75
     1
 76
     0
 52
45.0
 41
0.1
 77
     0
 78
     1
 53
45.0
 43
0.0
 44
0.0
 45
-0.0707106781186548
 46
0.0707106781186548
 79
     0
 98
        1
 10
0.0
 20
0.0
  0
HATCH
  5
49B
330
74
100
AcDbEntity
  8
1
  6
Continuous
 62
     2
100
AcDbHatch
 10
0.0
 20
0.0
 30
0.0
210
0.0
220
0.0
230
1.0
  2
_USER
 70
     0
 71
     1
 91
        2
 92
        1
 93
        4
 72
     2
 10
-65.77053365937127
 20
14.39397686916223
 40
1.204986845992994
 50
117.5481481756635
 51
242.451851824337
 73
     1
 72
     2
 10
-65.53835193058342
 20
14.8390801834625
 40
1.70700807620544
 50
242.4518518243401
 51
297.548148175687
 73
     1
 72
     2
 10
-65.30617020179557
 20
14.39397686916223
 40
1.204986845993433
 50
297.5481481757013
 51
422.4518518242982
 73
     1
 72
     2
 10
-65.53835193058342
 20
13.94887355486241
 40
1.707008076205444
 50
62.45185182430569
 51
117.5481481756673
 73
     1
 97
        4
330
40F
330
40C
330
40E
330
40D
 92
       16
 93
        4
 72
     2
 10
-65.53835193058342
 20
14.52350676843535
 40
0.4280236140605955
 50
38.12041979715423
 51
141.8795802028552
 73
     1
 72
     2
 10
-65.37327752038004
 20
14.39397686916223
 40
0.6378510567599095
 50
141.8795802028351
 51
218.1204197971658
 73
     1
 72
     2
 10
-65.53835193058342
 20
14.26444696988955
 40
0.4280236140609635
 50
218.1204197971923
 51
321.8795802027983
 73
     1
 72
     2
 10
-65.70342634078702
 20
14.39397686916223
 40
0.6378510567600066
 50
321.8795802028405
 51
398.1204197971587
 73
     1
 97
        4
330
3F2
330
3F3
330
3F4
330
3F1
 75
     1
 76
     0
 52
45.0
 41
0.1
 77
     0
 78
     1
 53
45.0
 43
0.0
 44
0.0
 45
-0.0707106781186548
 46
0.0707106781186548
 79
     0
 98
        1
 10
0.0
 20
0.0
  0
HATCH
  5
49C
330
74
100
AcDbEntity
  8
1
  6
Continuous
 62
     2
100
AcDbHatch
 10
0.0
 20
0.0
 30
0.0
210
0.0
220
0.0
230
1.0
  2
_USER
 70
     0
 71
     1
 91
        2
 92
        1
 93
        6
 72
     1
 10
-69.30348808462759
 20
18.43207210724502
 11
-69.30348808462759
 21
15.90826258343419
 72
     1
 10
-69.30348808462759
 20
15.90826258343419
 11
-68.2782778282193
 21
15.90826258343419
 72
     1
 10
-68.2782778282193
 20
15.90826258343419
 11
-68.2782778282193
 21
16.68766608851166
 72
     1
 10
-68.2782778282193
 20
16.68766608851166
 11
-67.65119717716118
 21
16.68766608851166
 72
     2
 10
-67.65119717716118
 20
17.55986909787833
 40
0.8722030093666717
 50
270.0
 51
450.0
 73
     1
 72
     1
 10
-67.65119717716118
 20
18.43207210724502
 11
-69.30348808462759
 21
18.43207210724502
 97
        6
330
419
330
2E7
330
2DD
330
2DC
330
2E9
330
2E8
 92
       16
 93
        4
 72
     1
 10
-68.01605050463093
 20
17.88405074737721
 11
-68.2782778282193
 21
17.88405074737721
 72
     1
 10
-68.2782778282193
 20
17.88405074737721
 11
-68.2782778282193
 21
17.30080475618525
 72
     1
 10
-68.2782778282193
 20
17.30080475618525
 11
-68.01605050463093
 21
17.30080475618525
 72
     2
 10
-68.01605050463093
 20
17.59242775178124
 40
0.2916229955959899
 50
270.0
 51
450.0
 73
     1
 97
        4
330
2EA
330
2DB
330
2EB
330
405
 75
     1
 76
     0
 52
45.0
 41
0.1
 77
     0
 78
     1
 53
45.0
 43
0.0
 44
0.0
 45
-0.0707106781186548
 46
0.0707106781186548
 79
     0
 98
        1
 10
0.0
 20
0.0
  0
HATCH
  5
49D
330
74
100
AcDbEntity
  8
1
  6
Continuous
 62
     2
100
AcDbHatch
 10
0.0
 20
0.0
 30
0.0
210
0.0
220
0.0
230
1.0
  2
_USER
 70
     0
 71
     1
 91
        2
 92
        1
 93
        6
 72
     1
 10
-69.30348808462759
 20
18.43207210724502
 11
-69.30348808462759
 21
15.90826258343419
 72
     1
 10
-69.30348808462759
 20
15.90826258343419
 11
-68.2782778282193
 21
15.90826258343419
 72
     1
 10
-68.2782778282193
 20
15.90826258343419
 11
-68.2782778282193
 21
16.68766608851166
 72
     1
 10
-68.2782778282193
 20
16.68766608851166
 11
-67.65119717716118
 21
16.68766608851166
 72
     2
 10
-67.65119717716118
 20
17.55986909787833
 40
0.8722030093666717
 50
270.0
 51
450.0
 73
     1
 72
     1
 10
-67.65119717716118
 20
18.43207210724502
 11
-69.30348808462759
 21
18.43207210724502
 97
        6
330
419
330
2E7
330
2DD
330
2DC
330
2E9
330
2E8
 92
       16
 93
        4
 72
     1
 10
-68.01605050463093
 20
17.88405074737721
 11
-68.2782778282193
 21
17.88405074737721
 72
     1
 10
-68.2782778282193
 20
17.88405074737721
 11
-68.2782778282193
 21
17.30080475618525
 72
     1
 10
-68.2782778282193
 20
17.30080475618525
 11
-68.01605050463093
 21
17.30080475618525
 72
     2
 10
-68.01605050463093
 20
17.59242775178124
 40
0.2916229955959899
 50
270.0
 51
450.0
 73
     1
 97
        4
330
2EA
330
2DB
330
2EB
330
405
 75
     1
 76
     0
 52
45.0
 41
0.1
 77
     0
 78
     1
 53
45.0
 43
0.0
 44
0.0
 45
-0.0707106781186548
 46
0.0707106781186548
 79
     0
 98
        1
 10
0.0
 20
0.0
  0
HATCH
  5
49E
330
74
100
AcDbEntity
  8
1
  6
Continuous
 62
     2
100
AcDbHatch
 10
0.0
 20
0.0
 30
0.0
210
0.0
220
0.0
230
1.0
  2
_USER
 70
     0
 71
     1
 91
        1
 92
        1
 93
       12
 72
     1
 10
-53.09333668426962
 20
18.43207210724502
 11
-51.93406047125541
 21
18.43207210724502
 72
     1
 10
-51.93406047125541
 20
18.43207210724502
 11
-53.01053124048394
 21
17.2147576196118
 72
     1
 10
-53.01053124048394
 20
17.2147576196118
 11
-51.85519814383906
 21
15.90826258343419
 72
     1
 10
-51.85519814383906
 20
15.90826258343419
 11
-53.01447435685418
 21
15.90826258343419
 72
     1
 10
-53.01447435685418
 20
15.90826258343419
 11
-53.59016934699093
 21
16.55928058780913
 72
     1
 10
-53.59016934699093
 20
16.55928058780913
 11
-54.16586433712791
 21
15.90826258343419
 72
     1
 10
-54.16586433712791
 20
15.90826258343419
 11
-55.32514055014292
 21
15.90826258343419
 72
     1
 10
-55.32514055014292
 20
15.90826258343419
 11
-54.16980745349804
 21
17.2147576196118
 72
     1
 10
-54.16980745349804
 20
17.2147576196118
 11
-55.24627822272737
 21
18.43207210724502
 72
     1
 10
-55.24627822272737
 20
18.43207210724502
 11
-54.08700200971146
 21
18.43207210724502
 72
     1
 10
-54.08700200971146
 20
18.43207210724502
 11
-53.59016934699093
 21
17.87023465141403
 72
     1
 10
-53.59016934699093
 20
17.87023465141403
 11
-53.09333668426962
 21
18.43207210724502
 97
       12
330
2B6
330
30F
330
30E
330
30D
330
30C
330
2B7
330
2B8
330
2B4
330
2B5
330
312
330
311
330
310
 75
     1
 76
     0
 52
45.0
 41
0.1
 77
     0
 78
     1
 53
45.0
 43
0.0
 44
0.0
 45
-0.0707106781186548
 46
0.0707106781186548
 79
     0
 98
        1
 10
0.0
 20
0.0
  0
HATCH
  5
49F
330
74
100
AcDbEntity
  8
1
  6
Continuous
 62
     2
100
AcDbHatch
 10
0.0
 20
0.0
 30
0.0
210
0.0
220
0.0
230
1.0
  2
_USER
 70
     0
 71
     1
 91
        1
 92
        1
 93
       12
 72
     1
 10
-53.09333668426962
 20
18.43207210724502
 11
-51.93406047125541
 21
18.43207210724502
 72
     1
 10
-51.93406047125541
 20
18.43207210724502
 11
-53.01053124048394
 21
17.2147576196118
 72
     1
 10
-53.01053124048394
 20
17.2147576196118
 11
-51.85519814383906
 21
15.90826258343419
 72
     1
 10
-51.85519814383906
 20
15.90826258343419
 11
-53.01447435685418
 21
15.90826258343419
 72
     1
 10
-53.01447435685418
 20
15.90826258343419
 11
-53.59016934699093
 21
16.55928058780913
 72
     1
 10
-53.59016934699093
 20
16.55928058780913
 11
-54.16586433712791
 21
15.90826258343419
 72
     1
 10
-54.16586433712791
 20
15.90826258343419
 11
-55.32514055014292
 21
15.90826258343419
 72
     1
 10
-55.32514055014292
 20
15.90826258343419
 11
-54.16980745349804
 21
17.2147576196118
 72
     1
 10
-54.16980745349804
 20
17.2147576196118
 11
-55.24627822272737
 21
18.43207210724502
 72
     1
 10
-55.24627822272737
 20
18.43207210724502
 11
-54.08700200971146
 21
18.43207210724502
 72
     1
 10
-54.08700200971146
 20
18.43207210724502
 11
-53.59016934699093
 21
17.87023465141403
 72
     1
 10
-53.59016934699093
 20
17.87023465141403
 11
-53.09333668426962
 21
18.43207210724502
 97
       12
330
2B6
330
30F
330
30E
330
30D
330
30C
330
2B7
330
2B8
330
2B4
330
2B5
330
312
330
311
330
310
 75
     1
 76
     0
 52
45.0
 41
0.1
 77
     0
 78
     1
 53
45.0
 43
0.0
 44
0.0
 45
-0.0707106781186548
 46
0.0707106781186548
 79
     0
 98
        1
 10
0.0
 20
0.0
  0
HATCH
  5
4A0
330
74
100
AcDbEntity
  8
1
  6
Continuous
 62
     2
100
AcDbHatch
 10
0.0
 20
0.0
 30
0.0
210
0.0
220
0.0
230
1.0
  2
_USER
 70
     0
 71
     1
 91
        1
 92
        1
 93
        4
 72
     1
 10
-55.42371845941307
 20
18.43207210724502
 11
-55.42371845941307
 21
15.90826258343419
 72
     1
 10
-55.42371845941307
 20
15.90826258343419
 11
-56.44892871582044
 21
15.90826258343419
 72
     1
 10
-56.44892871582044
 20
15.90826258343419
 11
-56.44892871582044
 21
18.43207210724502
 72
     1
 10
-56.44892871582044
 20
18.43207210724502
 11
-55.42371845941307
 21
18.43207210724502
 97
        4
330
30A
330
2B9
330
309
330
30B
 75
     1
 76
     0
 52
45.0
 41
0.1
 77
     0
 78
     1
 53
45.0
 43
0.0
 44
0.0
 45
-0.0707106781186548
 46
0.0707106781186548
 79
     0
 98
        1
 10
0.0
 20
0.0
  0
HATCH
  5
4A1
330
74
100
AcDbEntity
  8
1
  6
Continuous
 62
     2
100
AcDbHatch
 10
0.0
 20
0.0
 30
0.0
210
0.0
220
0.0
230
1.0
  2
_USER
 70
     0
 71
     1
 91
        1
 92
        1
 93
        4
 72
     1
 10
-55.42371845941307
 20
18.43207210724502
 11
-55.42371845941307
 21
15.90826258343419
 72
     1
 10
-55.42371845941307
 20
15.90826258343419
 11
-56.44892871582044
 21
15.90826258343419
 72
     1
 10
-56.44892871582044
 20
15.90826258343419
 11
-56.44892871582044
 21
18.43207210724502
 72
     1
 10
-56.44892871582044
 20
18.43207210724502
 11
-55.42371845941307
 21
18.43207210724502
 97
        4
330
30A
330
2B9
330
309
330
30B
 75
     1
 76
     0
 52
45.0
 41
0.1
 77
     0
 78
     1
 53
45.0
 43
0.0
 44
0.0
 45
-0.0707106781186548
 46
0.0707106781186548
 79
     0
 98
        1
 10
0.0
 20
0.0
  0
HATCH
  5
4A2
330
74
100
AcDbEntity
  8
1
  6
Continuous
 62
     2
100
AcDbHatch
 10
0.0
 20
0.0
 30
0.0
210
0.0
220
0.0
230
1.0
  2
_USER
 70
     0
 71
     1
 91
        2
 92
        1
 93
        8
 72
     1
 10
-55.74639945406761
 20
13.13207210725704
 11
-56.77160971047579
 21
13.13207210725704
 72
     1
 10
-56.77160971047579
 20
13.13207210725704
 11
-56.9463866141748
 21
13.57914693718916
 72
     1
 10
-56.9463866141748
 20
13.57914693718916
 11
-57.88228874365734
 21
13.57914693718916
 72
     1
 10
-57.88228874365734
 20
13.57914693718916
 11
-58.05706564735635
 21
13.13207210725704
 72
     1
 10
-58.05706564735635
 20
13.13207210725704
 11
-59.08227590376373
 21
13.13207210725704
 72
     1
 10
-59.08227590376373
 20
13.13207210725704
 11
-57.92694280711976
 21
15.65588163106787
 72
     1
 10
-57.92694280711976
 20
15.65588163106787
 11
-56.9017325507125
 21
15.65588163106787
 72
     1
 10
-56.9017325507125
 20
15.65588163106787
 11
-55.74639945406761
 21
13.13207210725704
 97
        8
330
305
330
2BF
330
304
330
307
330
2BC
330
306
330
2BD
330
2BE
 92
       16
 93
        3
 72
     1
 10
-57.66240812287629
 20
14.14159591678136
 11
-57.16626723495688
 21
14.14159591678136
 72
     1
 10
-57.16626723495688
 20
14.14159591678136
 11
-57.41433767891567
 21
14.7761537399109
 72
     1
 10
-57.41433767891567
 20
14.7761537399109
 11
-57.66240812287629
 21
14.14159591678136
 97
        3
330
2BB
330
2BA
330
308
 75
     1
 76
     0
 52
45.0
 41
0.1
 77
     0
 78
     1
 53
45.0
 43
0.0
 44
0.0
 45
-0.0707106781186548
 46
0.0707106781186548
 79
     0
 98
        1
 10
0.0
 20
0.0
  0
HATCH
  5
4A3
330
74
100
AcDbEntity
  8
1
  6
Continuous
 62
     2
100
AcDbHatch
 10
0.0
 20
0.0
 30
0.0
210
0.0
220
0.0
230
1.0
  2
_USER
 70
     0
 71
     1
 91
        2
 92
        1
 93
        8
 72
     1
 10
-55.74639945406761
 20
13.13207210725704
 11
-56.77160971047579
 21
13.13207210725704
 72
     1
 10
-56.77160971047579
 20
13.13207210725704
 11
-56.9463866141748
 21
13.57914693718916
 72
     1
 10
-56.9463866141748
 20
13.57914693718916
 11
-57.88228874365734
 21
13.57914693718916
 72
     1
 10
-57.88228874365734
 20
13.57914693718916
 11
-58.05706564735635
 21
13.13207210725704
 72
     1
 10
-58.05706564735635
 20
13.13207210725704
 11
-59.08227590376373
 21
13.13207210725704
 72
     1
 10
-59.08227590376373
 20
13.13207210725704
 11
-57.92694280711976
 21
15.65588163106787
 72
     1
 10
-57.92694280711976
 20
15.65588163106787
 11
-56.9017325507125
 21
15.65588163106787
 72
     1
 10
-56.9017325507125
 20
15.65588163106787
 11
-55.74639945406761
 21
13.13207210725704
 97
        8
330
305
330
2BF
330
304
330
307
330
2BC
330
306
330
2BD
330
2BE
 92
       16
 93
        3
 72
     1
 10
-57.66240812287629
 20
14.14159591678136
 11
-57.16626723495688
 21
14.14159591678136
 72
     1
 10
-57.16626723495688
 20
14.14159591678136
 11
-57.41433767891567
 21
14.7761537399109
 72
     1
 10
-57.41433767891567
 20
14.7761537399109
 11
-57.66240812287629
 21
14.14159591678136
 97
        3
330
2BB
330
2BA
330
308
 75
     1
 76
     0
 52
45.0
 41
0.1
 77
     0
 78
     1
 53
45.0
 43
0.0
 44
0.0
 45
-0.0707106781186548
 46
0.0707106781186548
 79
     0
 98
        1
 10
0.0
 20
0.0
  0
HATCH
  5
4A4
330
74
100
AcDbEntity
  8
1
  6
Continuous
 62
     2
100
AcDbHatch
 10
0.0
 20
0.0
 30
0.0
210
0.0
220
0.0
230
1.0
  2
_USER
 70
     0
 71
     1
 91
        1
 92
        1
 93
        8
 72
     1
 10
-60.86534378738543
 20
15.65588163106787
 11
-60.86534378738543
 21
15.00690203923015
 72
     1
 10
-60.86534378738543
 20
15.00690203923015
 11
-60.19501400434854
 21
15.00690203923015
 72
     1
 10
-60.19501400434854
 20
15.00690203923015
 11
-60.19501400434854
 21
13.13207210725704
 72
     1
 10
-60.19501400434854
 20
13.13207210725704
 11
-59.20923491164899
 21
13.13207210725704
 72
     1
 10
-59.20923491164899
 20
13.13207210725704
 11
-59.20923491164899
 21
15.00690203923015
 72
     1
 10
-59.20923491164899
 20
15.00690203923015
 11
-58.53890512861381
 21
15.00690203923015
 72
     1
 10
-58.53890512861381
 20
15.00690203923015
 11
-58.53890512861381
 21
15.65588163106787
 72
     1
 10
-58.53890512861381
 20
15.65588163106787
 11
-60.86534378738543
 21
15.65588163106787
 97
        8
330
301
330
300
330
2FF
330
2C0
330
2C1
330
303
330
2C2
330
302
 75
     1
 76
     0
 52
45.0
 41
0.1
 77
     0
 78
     1
 53
45.0
 43
0.0
 44
0.0
 45
-0.0707106781186548
 46
0.0707106781186548
 79
     0
 98
        1
 10
0.0
 20
0.0
  0
HATCH
  5
4A5
330
74
100
AcDbEntity
  8
1
  6
Continuous
 62
     2
100
AcDbHatch
 10
0.0
 20
0.0
 30
0.0
210
0.0
220
0.0
230
1.0
  2
_USER
 70
     0
 71
     1
 91
        1
 92
        1
 93
        8
 72
     1
 10
-60.86534378738543
 20
15.65588163106787
 11
-60.86534378738543
 21
15.00690203923015
 72
     1
 10
-60.86534378738543
 20
15.00690203923015
 11
-60.19501400434854
 21
15.00690203923015
 72
     1
 10
-60.19501400434854
 20
15.00690203923015
 11
-60.19501400434854
 21
13.13207210725704
 72
     1
 10
-60.19501400434854
 20
13.13207210725704
 11
-59.20923491164899
 21
13.13207210725704
 72
     1
 10
-59.20923491164899
 20
13.13207210725704
 11
-59.20923491164899
 21
15.00690203923015
 72
     1
 10
-59.20923491164899
 20
15.00690203923015
 11
-58.53890512861381
 21
15.00690203923015
 72
     1
 10
-58.53890512861381
 20
15.00690203923015
 11
-58.53890512861381
 21
15.65588163106787
 72
     1
 10
-58.53890512861381
 20
15.65588163106787
 11
-60.86534378738543
 21
15.65588163106787
 97
        8
330
301
330
300
330
2FF
330
2C0
330
2C1
330
303
330
2C2
330
302
 75
     1
 76
     0
 52
45.0
 41
0.1
 77
     0
 78
     1
 53
45.0
 43
0.0
 44
0.0
 45
-0.0707106781186548
 46
0.0707106781186548
 79
     0
 98
        1
 10
0.0
 20
0.0
  0
HATCH
  5
4A6
330
74
100
AcDbEntity
  8
1
  6
Continuous
 62
     2
100
AcDbHatch
 10
0.0
 20
0.0
 30
0.0
210
0.0
220
0.0
230
1.0
  2
_USER
 70
     0
 71
     1
 91
        1
 92
        1
 93
       10
 72
     1
 10
-58.6570738834688
 20
18.43207210724502
 11
-59.64285297616834
 21
18.43207210724502
 72
     1
 10
-59.64285297616834
 20
18.43207210724502
 11
-59.64285297616834
 21
15.90826258343419
 72
     1
 10
-59.64285297616834
 20
15.90826258343419
 11
-58.6570738834688
 21
15.90826258343419
 72
     1
 10
-58.6570738834688
 20
15.90826258343419
 11
-58.6570738834688
 21
16.98989523649585
 72
     1
 10
-58.6570738834688
 20
16.98989523649585
 11
-57.63186362706051
 21
15.90826258343419
 72
     1
 10
-57.63186362706051
 20
15.90826258343419
 11
-56.64608453436085
 21
15.90826258343419
 72
     1
 10
-56.64608453436085
 20
15.90826258343419
 11
-56.64608453436085
 21
18.43207210724502
 72
     1
 10
-56.64608453436085
 20
18.43207210724502
 11
-57.63186362706051
 21
18.43207210724502
 72
     1
 10
-57.63186362706051
 20
18.43207210724502
 11
-57.63186362706051
 21
17.35043945418291
 72
     1
 10
-57.63186362706051
 20
17.35043945418291
 11
-58.6570738834688
 21
18.43207210724502
 97
       10
330
2FB
330
2C5
330
2C6
330
2C7
330
2C8
330
2FE
330
2C3
330
2FD
330
2FC
330
2C4
 75
     1
 76
     0
 52
45.0
 41
0.1
 77
     0
 78
     1
 53
45.0
 43
0.0
 44
0.0
 45
-0.0707106781186548
 46
0.0707106781186548
 79
     0
 98
        1
 10
0.0
 20
0.0
  0
HATCH
  5
4A7
330
74
100
AcDbEntity
  8
1
  6
Continuous
 62
     2
100
AcDbHatch
 10
0.0
 20
0.0
 30
0.0
210
0.0
220
0.0
230
1.0
  2
_USER
 70
     0
 71
     1
 91
        1
 92
        1
 93
       10
 72
     1
 10
-58.6570738834688
 20
18.43207210724502
 11
-59.64285297616834
 21
18.43207210724502
 72
     1
 10
-59.64285297616834
 20
18.43207210724502
 11
-59.64285297616834
 21
15.90826258343419
 72
     1
 10
-59.64285297616834
 20
15.90826258343419
 11
-58.6570738834688
 21
15.90826258343419
 72
     1
 10
-58.6570738834688
 20
15.90826258343419
 11
-58.6570738834688
 21
16.98989523649585
 72
     1
 10
-58.6570738834688
 20
16.98989523649585
 11
-57.63186362706051
 21
15.90826258343419
 72
     1
 10
-57.63186362706051
 20
15.90826258343419
 11
-56.64608453436085
 21
15.90826258343419
 72
     1
 10
-56.64608453436085
 20
15.90826258343419
 11
-56.64608453436085
 21
18.43207210724502
 72
     1
 10
-56.64608453436085
 20
18.43207210724502
 11
-57.63186362706051
 21
18.43207210724502
 72
     1
 10
-57.63186362706051
 20
18.43207210724502
 11
-57.63186362706051
 21
17.35043945418291
 72
     1
 10
-57.63186362706051
 20
17.35043945418291
 11
-58.6570738834688
 21
18.43207210724502
 97
       10
330
2FB
330
2C5
330
2C6
330
2C7
330
2C8
330
2FE
330
2C3
330
2FD
330
2FC
330
2C4
 75
     1
 76
     0
 52
45.0
 41
0.1
 77
     0
 78
     1
 53
45.0
 43
0.0
 44
0.0
 45
-0.0707106781186548
 46
0.0707106781186548
 79
     0
 98
        1
 10
0.0
 20
0.0
  0
HATCH
  5
4A8
330
74
100
AcDbEntity
  8
1
  6
Continuous
 62
     2
100
AcDbHatch
 10
0.0
 20
0.0
 30
0.0
210
0.0
220
0.0
230
1.0
  2
_USER
 70
     0
 71
     1
 91
        1
 92
        1
 93
       10
 72
     1
 10
-62.99462662761641
 20
15.65588163106787
 11
-63.98040572031687
 21
15.65588163106787
 72
     1
 10
-63.98040572031687
 20
15.65588163106787
 11
-63.98040572031687
 21
13.13207210725704
 72
     1
 10
-63.98040572031687
 20
13.13207210725704
 11
-62.99462662761641
 21
13.13207210725704
 72
     1
 10
-62.99462662761641
 20
13.13207210725704
 11
-62.99462662761641
 21
14.21370476031869
 72
     1
 10
-62.99462662761641
 20
14.21370476031869
 11
-61.96941637120904
 21
13.13207210725704
 72
     1
 10
-61.96941637120904
 20
13.13207210725704
 11
-60.98363727850949
 21
13.13207210725704
 72
     1
 10
-60.98363727850949
 20
13.13207210725704
 11
-60.98363727850949
 21
15.65588163106787
 72
     1
 10
-60.98363727850949
 20
15.65588163106787
 11
-61.96941637120904
 21
15.65588163106787
 72
     1
 10
-61.96941637120904
 20
15.65588163106787
 11
-61.96941637120904
 21
14.57424897800576
 72
     1
 10
-61.96941637120904
 20
14.57424897800576
 11
-62.99462662761641
 21
15.65588163106787
 97
       10
330
2CA
330
2CB
330
2CC
330
2F8
330
2CD
330
2CE
330
2F7
330
2FA
330
2F9
330
2C9
 75
     1
 76
     0
 52
45.0
 41
0.1
 77
     0
 78
     1
 53
45.0
 43
0.0
 44
0.0
 45
-0.0707106781186548
 46
0.0707106781186548
 79
     0
 98
        1
 10
0.0
 20
0.0
  0
HATCH
  5
4A9
330
74
100
AcDbEntity
  8
1
  6
Continuous
 62
     2
100
AcDbHatch
 10
0.0
 20
0.0
 30
0.0
210
0.0
220
0.0
230
1.0
  2
_USER
 70
     0
 71
     1
 91
        1
 92
        1
 93
       10
 72
     1
 10
-62.99462662761641
 20
15.65588163106787
 11
-63.98040572031687
 21
15.65588163106787
 72
     1
 10
-63.98040572031687
 20
15.65588163106787
 11
-63.98040572031687
 21
13.13207210725704
 72
     1
 10
-63.98040572031687
 20
13.13207210725704
 11
-62.99462662761641
 21
13.13207210725704
 72
     1
 10
-62.99462662761641
 20
13.13207210725704
 11
-62.99462662761641
 21
14.21370476031869
 72
     1
 10
-62.99462662761641
 20
14.21370476031869
 11
-61.96941637120904
 21
13.13207210725704
 72
     1
 10
-61.96941637120904
 20
13.13207210725704
 11
-60.98363727850949
 21
13.13207210725704
 72
     1
 10
-60.98363727850949
 20
13.13207210725704
 11
-60.98363727850949
 21
15.65588163106787
 72
     1
 10
-60.98363727850949
 20
15.65588163106787
 11
-61.96941637120904
 21
15.65588163106787
 72
     1
 10
-61.96941637120904
 20
15.65588163106787
 11
-61.96941637120904
 21
14.57424897800576
 72
     1
 10
-61.96941637120904
 20
14.57424897800576
 11
-62.99462662761641
 21
15.65588163106787
 97
       10
330
2CA
330
2CB
330
2CC
330
2F8
330
2CD
330
2CE
330
2F7
330
2FA
330
2F9
330
2C9
 75
     1
 76
     0
 52
45.0
 41
0.1
 77
     0
 78
     1
 53
45.0
 43
0.0
 44
0.0
 45
-0.0707106781186548
 46
0.0707106781186548
 79
     0
 98
        1
 10
0.0
 20
0.0
  0
HATCH
  5
4AA
330
74
100
AcDbEntity
  8
1
  6
Continuous
 62
     2
100
AcDbHatch
 10
0.0
 20
0.0
 30
0.0
210
0.0
220
0.0
230
1.0
  2
_USER
 70
     0
 71
     1
 91
        1
 92
        1
 93
       12
 72
     1
 10
-63.8225563292159
 20
18.43207210724502
 11
-63.8225563292159
 21
15.90826258343419
 72
     1
 10
-63.8225563292159
 20
15.90826258343419
 11
-64.80833542191544
 21
15.90826258343419
 72
     1
 10
-64.80833542191544
 20
15.90826258343419
 11
-64.80833542191544
 21
16.84567754942075
 72
     1
 10
-64.80833542191544
 20
16.84567754942075
 11
-65.67582102349184
 21
16.84567754942075
 72
     1
 10
-65.67582102349184
 20
16.84567754942075
 11
-65.67582102349184
 21
15.90826258343419
 72
     1
 10
-65.67582102349184
 20
15.90826258343419
 11
-66.6616001161915
 21
15.90826258343419
 72
     1
 10
-66.6616001161915
 20
15.90826258343419
 11
-66.6616001161915
 21
18.43207210724502
 72
     1
 10
-66.6616001161915
 20
18.43207210724502
 11
-65.67582102349184
 21
18.43207210724502
 72
     1
 10
-65.67582102349184
 20
18.43207210724502
 11
-65.67582102349184
 21
17.54873877391066
 72
     1
 10
-65.67582102349184
 20
17.54873877391066
 11
-64.80833542191544
 21
17.54873877391066
 72
     1
 10
-64.80833542191544
 20
17.54873877391066
 11
-64.80833542191544
 21
18.43207210724502
 72
     1
 10
-64.80833542191544
 20
18.43207210724502
 11
-63.8225563292159
 21
18.43207210724502
 97
       12
330
2F2
330
2F1
330
2F0
330
2D8
330
2D9
330
2EF
330
2DA
330
2EE
330
2ED
330
2EC
330
2D6
330
2D7
 75
     1
 76
     0
 52
45.0
 41
0.1
 77
     0
 78
     1
 53
45.0
 43
0.0
 44
0.0
 45
-0.0707106781186548
 46
0.0707106781186548
 79
     0
 98
        1
 10
0.0
 20
0.0
  0
HATCH
  5
4AB
330
74
100
AcDbEntity
  8
1
  6
Continuous
 62
     2
100
AcDbHatch
 10
0.0
 20
0.0
 30
0.0
210
0.0
220
0.0
230
1.0
  2
_USER
 70
     0
 71
     1
 91
        1
 92
        1
 93
       12
 72
     1
 10
-63.8225563292159
 20
18.43207210724502
 11
-63.8225563292159
 21
15.90826258343419
 72
     1
 10
-63.8225563292159
 20
15.90826258343419
 11
-64.80833542191544
 21
15.90826258343419
 72
     1
 10
-64.80833542191544
 20
15.90826258343419
 11
-64.80833542191544
 21
16.84567754942075
 72
     1
 10
-64.80833542191544
 20
16.84567754942075
 11
-65.67582102349184
 21
16.84567754942075
 72
     1
 10
-65.67582102349184
 20
16.84567754942075
 11
-65.67582102349184
 21
15.90826258343419
 72
     1
 10
-65.67582102349184
 20
15.90826258343419
 11
-66.6616001161915
 21
15.90826258343419
 72
     1
 10
-66.6616001161915
 20
15.90826258343419
 11
-66.6616001161915
 21
18.43207210724502
 72
     1
 10
-66.6616001161915
 20
18.43207210724502
 11
-65.67582102349184
 21
18.43207210724502
 72
     1
 10
-65.67582102349184
 20
18.43207210724502
 11
-65.67582102349184
 21
17.54873877391066
 72
     1
 10
-65.67582102349184
 20
17.54873877391066
 11
-64.80833542191544
 21
17.54873877391066
 72
     1
 10
-64.80833542191544
 20
17.54873877391066
 11
-64.80833542191544
 21
18.43207210724502
 72
     1
 10
-64.80833542191544
 20
18.43207210724502
 11
-63.8225563292159
 21
18.43207210724502
 97
       12
330
2F2
330
2F1
330
2F0
330
2D8
330
2D9
330
2EF
330
2DA
330
2EE
330
2ED
330
2EC
330
2D6
330
2D7
 75
     1
 76
     0
 52
45.0
 41
0.1
 77
     0
 78
     1
 53
45.0
 43
0.0
 44
0.0
 45
-0.0707106781186548
 46
0.0707106781186548
 79
     0
 98
        1
 10
0.0
 20
0.0
  0
ENDBLK
  5
76
330
74
100
AcDbEntity
  8
0
100
AcDbBlockEnd
  0
BLOCK
  5
7A
330
77
100
AcDbEntity
  8
0
100
AcDbBlockBegin
  2
A4I
 70
     0
 10
47.9623302529381
 20
2.28207210725108
 30
0.0
  3
A4I
  1

  0
INSERT
  5
78
330
77
100
AcDbEntity
  8
1
100
AcDbBlockReference
  2
_punkt
 10
47.9623302529381
 20
7.28207210725119
 30
0.0
  0
INSERT
  5
79
330
77
100
AcDbEntity
  8
1
100
AcDbBlockReference
  2
_rahmen
 10
47.9623302529381
 20
2.28207210725108
 30
0.0
  0
ENDBLK
  5
7B
330
77
100
AcDbEntity
  8
0
100
AcDbBlockEnd
  0
BLOCK
  5
130
330
127
100
AcDbEntity
  8
0
100
AcDbBlockBegin
  2
*D16
 70
     1
 10
0.0
 20
0.0
 30
0.0
  3
*D16
  1

  0
LINE
  5
128
330
127
100
AcDbEntity
  8
1
  6
Continuous
 62
     2
100
AcDbLine
 10
-40.8454310817308
 20
54.69999990464229
 30
0.0
 11
-40.8454310817308
 21
58.19999990464229
 31
0.0
  0
LINE
  5
129
330
127
100
AcDbEntity
  8
1
  6
Continuous
 62
     2
100
AcDbLine
 10
-40.8454310817308
 20
58.19999990464229
 30
0.0
 11
-40.8454310817308
 21
62.74999990464228
 31
0.0
  0
LINE
  5
12A
330
127
100
AcDbEntity
  8
1
  6
Continuous
 62
     2
100
AcDbLine
 10
-40.8454310817308
 20
62.74999990464228
 30
0.0
 11
-40.8454310817308
 21
69.536006246807
 31
0.0
  0
LINE
  5
12B
330
127
100
AcDbEntity
  8
1
  6
Continuous
 62
     2
100
AcDbLine
 10
-48.57499993715072
 20
58.19999990464229
 30
0.0
 11
-39.8454310817308
 21
58.19999990464229
 31
0.0
  0
LINE
  5
12C
330
127
100
AcDbEntity
  8
1
  6
Continuous
 62
     2
100
AcDbLine
 10
-48.57499993715071
 20
62.74999990464228
 30
0.0
 11
-39.8454310817308
 21
62.74999990464228
 31
0.0
  0
SOLID
  5
12D
330
127
100
AcDbEntity
  8
1
 62
     2
100
AcDbTrace
 10
-40.61503921095286
 20
56.44999990464229
 30
0.0
 11
-41.07582295250874
 21
56.44999990464229
 31
0.0
 12
-40.8454310817308
 22
58.19999990464229
 32
0.0
 13
-40.8454310817308
 23
58.19999990464229
 33
0.0
  0
SOLID
  5
12E
330
127
100
AcDbEntity
  8
1
 62
     2
100
AcDbTrace
 10
-41.07582295250874
 20
64.49999990464228
 30
0.0
 11
-40.61503921095286
 21
64.49999990464228
 31
0.0
 12
-40.8454310817308
 22
62.74999990464228
 32
0.0
 13
-40.8454310817308
 23
62.74999990464228
 33
0.0
  0
MTEXT
  5
12F
330
127
100
AcDbEntity
  8
1
 62
     3
100
AcDbMText
 10
-42.0204310817308
 20
66.298506246807
 30
0.0
 40
1.75
 41
0.0
 71
     7
 72
     1
  1
4,6
  7
CONVERTER_11
 11
0.0
 21
1.0
 31
0.0
 73
     1
 44
0.60024009603842
  0
ENDBLK
  5
131
330
127
100
AcDbEntity
  8
0
100
AcDbBlockEnd
  0
BLOCK
  5
13B
330
134
100
AcDbEntity
  8
0
100
AcDbBlockBegin
  2
*D17
 70
     1
 10
0.0
 20
0.0
 30
0.0
  3
*D17
  1

  0
LINE
  5
135
330
134
100
AcDbEntity
  8
1
  6
Continuous
 62
     2
100
AcDbLine
 10
-36.29156726820955
 20
62.74999990464228
 30
0.0
 11
-36.29156726820955
 21
37.59999990464226
 31
0.0
  0
LINE
  5
136
330
134
100
AcDbEntity
  8
1
  6
Continuous
 62
     2
100
AcDbLine
 10
-48.57499993715071
 20
62.74999990464228
 30
0.0
 11
-35.29156726820955
 21
62.74999990464228
 31
0.0
  0
LINE
  5
137
330
134
100
AcDbEntity
  8
1
  6
Continuous
 62
     2
100
AcDbLine
 10
-48.57499993715081
 20
37.59999990464226
 30
0.0
 11
-35.29156726820955
 21
37.59999990464226
 31
0.0
  0
SOLID
  5
138
330
134
100
AcDbEntity
  8
1
 62
     2
100
AcDbTrace
 10
-36.06117539743161
 20
60.99999990464228
 30
0.0
 11
-36.5219591389875
 21
60.99999990464228
 31
0.0
 12
-36.29156726820955
 22
62.74999990464228
 32
0.0
 13
-36.29156726820955
 23
62.74999990464228
 33
0.0
  0
SOLID
  5
139
330
134
100
AcDbEntity
  8
1
 62
     2
100
AcDbTrace
 10
-36.5219591389875
 20
39.34999990464226
 30
0.0
 11
-36.06117539743161
 21
39.34999990464226
 31
0.0
 12
-36.29156726820955
 22
37.59999990464226
 32
0.0
 13
-36.29156726820955
 23
37.59999990464226
 33
0.0
  0
MTEXT
  5
13A
330
134
100
AcDbEntity
  8
1
 62
     3
100
AcDbMText
 10
-37.46656726820955
 20
47.14911103463545
 30
0.0
 40
1.75
 41
0.0
 71
     7
 72
     1
  1
25,2
  7
CONVERTER_11
 11
0.0
 21
1.0
 31
0.0
 73
     1
 44
0.60024009603842
  0
ENDBLK
  5
13C
330
134
100
AcDbEntity
  8
0
100
AcDbBlockEnd
  0
BLOCK
  5
148
330
13F
100
AcDbEntity
  8
0
100
AcDbBlockBegin
  2
*D18
 70
     1
 10
0.0
 20
0.0
 30
0.0
  3
*D18
  1

  0
LINE
  5
140
330
13F
100
AcDbEntity
  8
1
  6
Continuous
 62
     2
100
AcDbLine
 10
-45.07499993715071
 20
67.7499999046423
 30
0.0
 11
-48.57499993715071
 21
67.7499999046423
 31
0.0
  0
LINE
  5
141
330
13F
100
AcDbEntity
  8
1
  6
Continuous
 62
     2
100
AcDbLine
 10
-48.57499993715071
 20
67.7499999046423
 30
0.0
 11
-52.82499993715071
 21
67.7499999046423
 31
0.0
  0
LINE
  5
142
330
13F
100
AcDbEntity
  8
1
  6
Continuous
 62
     2
100
AcDbLine
 10
-52.82499993715071
 20
67.7499999046423
 30
0.0
 11
-59.488445712444
 21
67.7499999046423
 31
0.0
  0
LINE
  5
143
330
13F
100
AcDbEntity
  8
1
  6
Continuous
 62
     2
100
AcDbLine
 10
-48.57499993715071
 20
62.74999990464228
 30
0.0
 11
-48.57499993715071
 21
68.7499999046423
 31
0.0
  0
LINE
  5
144
330
13F
100
AcDbEntity
  8
1
  6
Continuous
 62
     2
100
AcDbLine
 10
-52.82499993715071
 20
62.7499999046423
 30
0.0
 11
-52.82499993715071
 21
68.7499999046423
 31
0.0
  0
SOLID
  5
145
330
13F
100
AcDbEntity
  8
1
 62
     2
100
AcDbTrace
 10
-46.82499993715071
 20
67.98039177542023
 30
0.0
 11
-46.82499993715071
 21
67.51960803386436
 31
0.0
 12
-48.57499993715071
 22
67.7499999046423
 32
0.0
 13
-48.57499993715071
 23
67.7499999046423
 33
0.0
  0
SOLID
  5
146
330
13F
100
AcDbEntity
  8
1
 62
     2
100
AcDbTrace
 10
-54.57499993715071
 20
67.51960803386436
 30
0.0
 11
-54.57499993715071
 21
67.98039177542023
 31
0.0
 12
-52.82499993715071
 22
67.7499999046423
 32
0.0
 13
-52.82499993715071
 23
67.7499999046423
 33
0.0
  0
MTEXT
  5
147
330
13F
100
AcDbEntity
  8
1
 62
     3
100
AcDbMText
 10
-59.488445712444
 20
68.9249999046423
 30
0.0
 40
1.75
 41
0.0
 71
     7
 72
     1
  1
4,3
  7
CONVERTER_11
 11
0.9999999999970619
 21
2.424068405545306E-6
 31
0.0
 73
     1
 44
0.60024009603842
  0
ENDBLK
  5
149
330
13F
100
AcDbEntity
  8
0
100
AcDbBlockEnd
  0
BLOCK
  5
2A9
330
2A0
100
AcDbEntity
  8
0
100
AcDbBlockBegin
  2
*D19
 70
     1
 10
0.0
 20
0.0
 30
0.0
  3
*D19
  1

  0
LINE
  5
2A1
330
2A0
100
AcDbEntity
  8
1
  6
Continuous
 62
     2
100
AcDbLine
 10
-42.3454310817308
 20
88.4563218466175
 30
0.0
 11
-42.3454310817308
 21
82.24999998334144
 31
0.0
  0
LINE
  5
2A2
330
2A0
100
AcDbEntity
  8
1
  6
Continuous
 62
     2
100
AcDbLine
 10
-42.3454310817308
 20
82.24999998334144
 30
0.0
 11
-42.3454310817308
 21
77.74999998333988
 31
0.0
  0
LINE
  5
2A3
330
2A0
100
AcDbEntity
  8
1
  6
Continuous
 62
     2
100
AcDbLine
 10
-42.3454310817308
 20
77.74999998333988
 30
0.0
 11
-42.3454310817308
 21
74.24999998333988
 31
0.0
  0
LINE
  5
2A4
330
2A0
100
AcDbEntity
  8
1
  6
Continuous
 62
     2
100
AcDbLine
 10
-48.57499993715076
 20
82.24999998334144
 30
0.0
 11
-41.3454310817308
 21
82.24999998334144
 31
0.0
  0
LINE
  5
2A5
330
2A0
100
AcDbEntity
  8
1
  6
Continuous
 62
     2
100
AcDbLine
 10
-50.69999982228886
 20
77.74999998333988
 30
0.0
 11
-41.3454310817308
 21
77.74999998333988
 31
0.0
  0
SOLID
  5
2A6
330
2A0
100
AcDbEntity
  8
1
 62
     2
100
AcDbTrace
 10
-42.57582295250874
 20
83.99999998334144
 30
0.0
 11
-42.11503921095286
 21
83.99999998334144
 31
0.0
 12
-42.3454310817308
 22
82.24999998334144
 32
0.0
 13
-42.3454310817308
 23
82.24999998334144
 33
0.0
  0
SOLID
  5
2A7
330
2A0
100
AcDbEntity
  8
1
 62
     2
100
AcDbTrace
 10
-42.11503921095286
 20
75.99999998333988
 30
0.0
 11
-42.57582295250874
 21
75.99999998333988
 31
0.0
 12
-42.3454310817308
 22
77.74999998333988
 32
0.0
 13
-42.3454310817308
 23
77.74999998333988
 33
0.0
  0
MTEXT
  5
2A8
330
2A0
100
AcDbEntity
  8
1
 62
     3
100
AcDbMText
 10
-43.5204310817308
 20
85.21882184661749
 30
0.0
 40
1.75
 41
0.0
 71
     7
 72
     1
  1
4,5
  7
CONVERTER_11
 11
0.0
 21
1.0
 31
0.0
 73
     1
 44
0.60024009603842
  0
ENDBLK
  5
2AA
330
2A0
100
AcDbEntity
  8
0
100
AcDbBlockEnd
  0
ENDSEC
  0
SECTION
  2
ENTITIES
  0
INSERT
  5
7C
330
1F
100
AcDbEntity
  8
0
100
AcDbBlockReference
  2
Allg1
 10
-4.00000000002807
 20
78.00000000001592
 30
0.0
 41
2.0
 42
2.0
 43
2.0
  0
INSERT
  5
7D
330
1F
100
AcDbEntity
  8
0
100
AcDbBlockReference
  2
Drfsicht1
 10
-101.3999998688699
 20
100.3500001907243
 30
0.0
 41
2.0
 42
2.0
 43
2.0
  0
INSERT
  5
7E
330
1F
100
AcDbEntity
  8
0
100
AcDbBlockReference
  2
Rckans1
 10
4.39999986886985
 20
159.9999999999899
 30
0.0
 41
2.0
 42
2.0
 43
2.0
  0
INSERT
  5
7F
330
1F
100
AcDbEntity
  8
0
100
AcDbBlockReference
  2
SA_Links1
 10
-46.000000000015
 20
159.9999999999949
 30
0.0
 41
2.0
 42
2.0
 43
2.0
  0
INSERT
  5
80
330
1F
100
AcDbEntity
  8
0
100
AcDbBlockReference
  2
SA_Rechts1
 10
-150.7999997377397
 20
159.99999999999
 30
0.0
 41
2.0
 42
2.0
 43
2.0
  0
INSERT
  5
81
330
1F
100
AcDbEntity
  8
0
100
AcDbBlockReference
  2
Vordans1
 10
-101.3999998688699
 20
159.99999999999
 30
0.0
 41
2.0
 42
2.0
 43
2.0
  0
INSERT
  5
82
330
1F
100
AcDbEntity
  8
0
100
AcDbBlockReference
  2
A4I
 10
47.9623302529381
 20
2.28207210725108
 30
0.0
  0
ENDSEC
  0
SECTION
  2
OBJECTS
  0
DICTIONARY
  5
C
330
0
100
AcDbDictionary
281
     1
  3
ACAD_GROUP
350
D
  3
ACAD_LAYOUT
350
1A
  3
ACAD_MATERIAL
350
3B
  3
ACAD_MLEADERSTYLE
350
4AE
  3
ACAD_MLINESTYLE
350
17
  3
ACAD_PLOTSETTINGS
350
19
  3
ACAD_PLOTSTYLENAME
350
E
  3
ACAD_VISUALSTYLE
350
2A
  3
AcDbVariableDictionary
350
4AC
  0
DICTIONARY
  5
D
102
{ACAD_REACTORS
330
C
102
}
330
C
100
AcDbDictionary
281
     1
  0
DICTIONARY
  5
1A
102
{ACAD_REACTORS
330
C
102
}
330
C
100
AcDbDictionary
281
     1
  3
Layout1
350
1E
  3
Layout2
350
26
  3
Model
350
22
  0
DICTIONARY
  5
3B
102
{ACAD_REACTORS
330
C
102
}
330
C
100
AcDbDictionary
281
     1
  3
ByBlock
350
3D
  3
ByLayer
350
3C
  3
Global
350
3E
  0
DICTIONARY
  5
4AE
102
{ACAD_REACTORS
330
C
102
}
330
C
100
AcDbDictionary
281
     1
  0
DICTIONARY
  5
17
102
{ACAD_REACTORS
330
C
102
}
330
C
100
AcDbDictionary
281
     1
  3
Standard
350
18
  0
DICTIONARY
  5
19
102
{ACAD_REACTORS
330
C
102
}
330
C
100
AcDbDictionary
281
     1
  0
ACDBDICTIONARYWDFLT
  5
E
102
{ACAD_REACTORS
330
C
102
}
330
C
100
AcDbDictionary
281
     1
  3
Normal
350
F
100
AcDbDictionaryWithDefault
340
F
  0
DICTIONARY
  5
2A
102
{ACAD_REACTORS
330
C
102
}
330
C
100
AcDbDictionary
281
     1
  3
2dWireframe
350
2F
  3
3D Hidden
350
31
  3
3dWireframe
350
30
  3
Basic
350
32
  3
Brighten
350
36
  3
ColorChange
350
3A
  3
Conceptual
350
34
  3
Dim
350
35
  3
Facepattern
350
39
  3
Flat
350
2B
  3
FlatWithEdges
350
2C
  3
Gouraud
350
2D
  3
GouraudWithEdges
350
2E
  3
Linepattern
350
38
  3
Realistic
350
33
  3
Thicken
350
37
  0
DICTIONARY
  5
4AC
102
{ACAD_REACTORS
330
C
102
}
330
C
100
AcDbDictionary
281
     1
  3
DIMASSOC
350
4AF
  3
HIDETEXT
350
4B0
  0
LAYOUT
  5
1E
102
{ACAD_REACTORS
330
1A
102
}
330
1A
100
AcDbPlotSettings
  1

  2
none_device
  4

  6

 40
0.0
 41
0.0
 42
0.0
 43
0.0
 44
0.0
 45
0.0
 46
0.0
 47
0.0
 48
0.0
 49
0.0
140
0.0
141
0.0
142
1.0
143
1.0
 70
   688
 72
     0
 73
     0
 74
     5
  7

 75
    16
147
1.0
148
0.0
149
0.0
100
AcDbLayout
  1
Layout1
 70
     1
 71
     1
 10
0.0
 20
0.0
 11
12.0
 21
9.0
 12
0.0
 22
0.0
 32
0.0
 14
1.00000000000000E+20
 24
1.00000000000000E+20
 34
1.00000000000000E+20
 15
-1.00000000000000E+20
 25
-1.00000000000000E+20
 35
-1.00000000000000E+20
146
0.0
 13
0.0
 23
0.0
 33
0.0
 16
1.0
 26
0.0
 36
0.0
 17
0.0
 27
1.0
 37
0.0
 76
     0
330
1B
  0
LAYOUT
  5
26
102
{ACAD_REACTORS
330
1A
102
}
330
1A
100
AcDbPlotSettings
  1

  2
none_device
  4

  6

 40
0.0
 41
0.0
 42
0.0
 43
0.0
 44
0.0
 45
0.0
 46
0.0
 47
0.0
 48
0.0
 49
0.0
140
0.0
141
0.0
142
1.0
143
1.0
 70
   688
 72
     0
 73
     0
 74
     5
  7

 75
    16
147
1.0
148
0.0
149
0.0
100
AcDbLayout
  1
Layout2
 70
     1
 71
     2
 10
0.0
 20
0.0
 11
0.0
 21
0.0
 12
0.0
 22
0.0
 32
0.0
 14
0.0
 24
0.0
 34
0.0
 15
0.0
 25
0.0
 35
0.0
146
0.0
 13
0.0
 23
0.0
 33
0.0
 16
1.0
 26
0.0
 36
0.0
 17
0.0
 27
1.0
 37
0.0
 76
     0
330
23
  0
LAYOUT
  5
22
102
{ACAD_REACTORS
330
1A
102
}
330
1A
100
AcDbPlotSettings
  1

  2
none_device
  4

  6

 40
0.0
 41
0.0
 42
0.0
 43
0.0
 44
0.0
 45
0.0
 46
0.0
 47
0.0
 48
0.0
 49
0.0
140
0.0
141
0.0
142
1.0
143
1.0
 70
  1712
 72
     0
 73
     0
 74
     0
  7

 75
     0
147
1.0
148
0.0
149
0.0
100
AcDbLayout
  1
Model
 70
     1
 71
     0
 10
0.0
 20
0.0
 11
12.0
 21
9.0
 12
0.0
 22
0.0
 32
0.0
 14
-244.037669747061
 24
2.28207210725108
 34
0.0
 15
52.96233025293711
 25
212.2820721072511
 35
0.0
146
0.0
 13
0.0
 23
0.0
 33
0.0
 16
1.0
 26
0.0
 36
0.0
 17
0.0
 27
1.0
 37
0.0
 76
     0
330
1F
331
29
  0
MATERIAL
  5
3D
102
{ACAD_REACTORS
330
3B
102
}
102
{ACAD_XDICTIONARY
360
4D3
102
}
330
3B
100
AcDbMaterial
  1
ByBlock
  0
MATERIAL
  5
3C
102
{ACAD_REACTORS
330
3B
102
}
102
{ACAD_XDICTIONARY
360
4D1
102
}
330
3B
100
AcDbMaterial
  1
ByLayer
  0
MATERIAL
  5
3E
102
{ACAD_REACTORS
330
3B
102
}
102
{ACAD_XDICTIONARY
360
4D5
102
}
330
3B
100
AcDbMaterial
  1
Global
  0
MLINESTYLE
  5
18
102
{ACAD_REACTORS
330
17
102
}
330
17
100
AcDbMlineStyle
  2
Standard
 70
     0
  3

 62
   256
 51
90.0
 52
90.0
 71
     2
 49
0.5
 62
   256
  6
BYLAYER
 49
-0.5
 62
   256
  6
BYLAYER
  0
ACDBPLACEHOLDER
  5
F
102
{ACAD_REACTORS
330
E
102
}
330
E
  0
VISUALSTYLE
  5
2F
102
{ACAD_REACTORS
330
2A
102
}
102
{ACAD_XDICTIONARY
360
4B9
102
}
330
2A
100
AcDbVisualStyle
  2
2dWireframe
 70
     4
 71
     0
 72
     2
 73
     0
 90
        0
 40
-0.6
 41
-30.0
 62
     5
 63
     7
 74
     1
 91
        4
 64
     7
 65
   257
 75
     1
175
     1
 42
1.0
 92
        0
 66
   257
 43
1.0
 76
     1
 77
     6
 78
     2
 67
     7
 79
     5
170
     0
171
     0
290
     0
174
     0
 93
        1
 44
0.0
173
     0
291
     0
 45
0.0
1001
ACAD
1000
AcDbSavedByObjectVersion
1070
     0
  0
VISUALSTYLE
  5
31
102
{ACAD_REACTORS
330
2A
102
}
102
{ACAD_XDICTIONARY
360
4BD
102
}
330
2A
100
AcDbVisualStyle
  2
3D Hidden
 70
     6
 71
     1
 72
     2
 73
     2
 90
        0
 40
-0.6
 41
-30.0
 62
     5
 63
     7
 74
     2
 91
        2
 64
     7
 65
   257
 75
     2
175
     1
 42
40.0
 92
        0
 66
   257
 43
1.0
 76
     1
 77
     6
 78
     2
 67
     7
 79
     3
170
     0
171
     0
290
     0
174
     0
 93
        1
 44
0.0
173
     0
291
     0
 45
0.0
1001
ACAD
1000
AcDbSavedByObjectVersion
1070
     0
  0
VISUALSTYLE
  5
30
102
{ACAD_REACTORS
330
2A
102
}
102
{ACAD_XDICTIONARY
360
4BB
102
}
330
2A
100
AcDbVisualStyle
  2
3dWireframe
 70
     5
 71
     0
 72
     2
 73
     0
 90
        0
 40
-0.6
 41
-30.0
 62
     5
 63
     7
 74
     1
 91
        4
 64
     7
 65
   257
 75
     1
175
     1
 42
1.0
 92
        0
 66
   257
 43
1.0
 76
     1
 77
     6
 78
     2
 67
     7
 79
     5
170
     0
171
     0
290
     0
174
     0
 93
        1
 44
0.0
173
     0
291
     0
 45
0.0
1001
ACAD
1000
AcDbSavedByObjectVersion
1070
     0
  0
VISUALSTYLE
  5
32
102
{ACAD_REACTORS
330
2A
102
}
102
{ACAD_XDICTIONARY
360
4BF
102
}
330
2A
100
AcDbVisualStyle
  2
Basic
 70
     7
 71
     1
 72
     0
 73
     1
 90
        0
 40
-0.6
 41
-30.0
 62
     5
 63
     7
 74
     0
 91
        4
 64
     7
 65
   257
 75
     1
175
     1
 42
1.0
 92
        8
 66
     7
 43
1.0
 76
     1
 77
     6
 78
     2
 67
     7
 79
     5
170
     0
171
     0
290
     0
174
     0
 93
        1
 44
0.0
173
     0
291
     1
 45
0.0
1001
ACAD
1000
AcDbSavedByObjectVersion
1070
     0
  0
VISUALSTYLE
  5
36
102
{ACAD_REACTORS
330
2A
102
}
102
{ACAD_XDICTIONARY
360
4C7
102
}
330
2A
100
AcDbVisualStyle
  2
Brighten
 70
    12
 71
     2
 72
     2
 73
     0
 90
        0
 40
-0.6
 41
-30.0
 62
     5
 63
     7
 74
     1
 91
        4
 64
     7
 65
   257
 75
     1
175
     1
 42
1.0
 92
        8
 66
     7
 43
1.0
 76
     1
 77
     6
 78
     2
 67
     7
 79
     5
170
     0
171
     0
290
     0
174
     0
 93
        1
 44
50.0
173
     0
291
     1
 45
0.0
1001
ACAD
1000
AcDbSavedByObjectVersion
1070
     0
  0
VISUALSTYLE
  5
3A
102
{ACAD_REACTORS
330
2A
102
}
102
{ACAD_XDICTIONARY
360
4CF
102
}
330
2A
100
AcDbVisualStyle
  2
ColorChange
 70
    16
 71
     2
 72
     2
 73
     3
 90
        0
 40
-0.6
 41
-30.0
 62
     5
 63
     8
 74
     1
 91
        4
 64
     7
 65
   257
 75
     1
175
     1
 42
1.0
 92
        8
 66
     8
 43
1.0
 76
     1
 77
     6
 78
     2
 67
     7
 79
     5
170
     0
171
     0
290
     0
174
     0
 93
        1
 44
0.0
173
     0
291
     1
 45
0.0
1001
ACAD
1000
AcDbSavedByObjectVersion
1070
     0
  0
VISUALSTYLE
  5
34
102
{ACAD_REACTORS
330
2A
102
}
102
{ACAD_XDICTIONARY
360
4C3
102
}
330
2A
100
AcDbVisualStyle
  2
Conceptual
 70
     9
 71
     3
 72
     2
 73
     0
 90
        0
 40
-0.6
 41
-30.0
 62
     5
 63
     7
 74
     2
 91
        2
 64
     7
 65
   257
 75
     1
175
     1
 42
40.0
 92
        8
 66
     7
 43
1.0
 76
     1
 77
     6
 78
     2
 67
     7
 79
     3
170
     0
171
     0
290
     0
174
     0
 93
        1
 44
0.0
173
     0
291
     0
 45
0.0
1001
ACAD
1000
AcDbSavedByObjectVersion
1070
     0
  0
VISUALSTYLE
  5
35
102
{ACAD_REACTORS
330
2A
102
}
102
{ACAD_XDICTIONARY
360
4C5
102
}
330
2A
100
AcDbVisualStyle
  2
Dim
 70
    11
 71
     2
 72
     2
 73
     0
 90
        0
 40
-0.6
 41
-30.0
 62
     5
 63
     7
 74
     1
 91
        4
 64
     7
 65
   257
 75
     1
175
     1
 42
1.0
 92
        8
 66
     7
 43
1.0
 76
     1
 77
     6
 78
     2
 67
     7
 79
     5
170
     0
171
     0
290
     0
174
     0
 93
        1
 44
-50.0
173
     0
291
     1
 45
0.0
1001
ACAD
1000
AcDbSavedByObjectVersion
1070
     0
  0
VISUALSTYLE
  5
39
102
{ACAD_REACTORS
330
2A
102
}
102
{ACAD_XDICTIONARY
360
4CD
102
}
330
2A
100
AcDbVisualStyle
  2
Facepattern
 70
    15
 71
     2
 72
     2
 73
     0
 90
        0
 40
-0.6
 41
-30.0
 62
     5
 63
     7
 74
     1
 91
        4
 64
     7
 65
   257
 75
     1
175
     1
 42
1.0
 92
        8
 66
     7
 43
1.0
 76
     1
 77
     6
 78
     2
 67
     7
 79
     5
170
     0
171
     0
290
     0
174
     0
 93
        1
 44
0.0
173
     0
291
     1
 45
0.0
1001
ACAD
1000
AcDbSavedByObjectVersion
1070
     0
  0
VISUALSTYLE
  5
2B
102
{ACAD_REACTORS
330
2A
102
}
102
{ACAD_XDICTIONARY
360
4B1
102
}
330
2A
100
AcDbVisualStyle
  2
Flat
 70
     0
 71
     2
 72
     1
 73
     1
 90
        2
 40
-0.6
 41
30.0
 62
     5
 63
     7
 74
     0
 91
        4
 64
     7
 65
   257
 75
     1
175
     1
 42
1.0
 92
        8
 66
     7
 43
1.0
 76
     1
 77
     6
 78
     2
 67
     7
 79
     5
170
     0
171
     0
290
     0
174
     0
 93
       13
 44
0.0
173
     0
291
     1
 45
0.0
1001
ACAD
1000
AcDbSavedByObjectVersion
1070
     0
  0
VISUALSTYLE
  5
2C
102
{ACAD_REACTORS
330
2A
102
}
102
{ACAD_XDICTIONARY
360
4B3
102
}
330
2A
100
AcDbVisualStyle
  2
FlatWithEdges
 70
     1
 71
     2
 72
     1
 73
     1
 90
        2
 40
-0.6
 41
30.0
 62
     5
 63
     7
 74
     1
 91
        4
 64
     7
 65
   257
 75
     1
175
     1
 42
1.0
 92
        0
 66
   257
 43
1.0
 76
     1
 77
     6
 78
     2
 67
     7
 79
     5
170
     0
171
     0
290
     0
174
     0
 93
       13
 44
0.0
173
     0
291
     1
 45
0.0
1001
ACAD
1000
AcDbSavedByObjectVersion
1070
     0
  0
VISUALSTYLE
  5
2D
102
{ACAD_REACTORS
330
2A
102
}
102
{ACAD_XDICTIONARY
360
4B5
102
}
330
2A
100
AcDbVisualStyle
  2
Gouraud
 70
     2
 71
     2
 72
     2
 73
     1
 90
        2
 40
-0.6
 41
30.0
 62
     5
 63
     7
 74
     0
 91
        4
 64
     7
 65
   257
 75
     1
175
     1
 42
1.0
 92
        0
 66
     7
 43
1.0
 76
     1
 77
     6
 78
     2
 67
     7
 79
     5
170
     0
171
     0
290
     0
174
     0
 93
       13
 44
0.0
173
     0
291
     1
 45
0.0
1001
ACAD
1000
AcDbSavedByObjectVersion
1070
     0
  0
VISUALSTYLE
  5
2E
102
{ACAD_REACTORS
330
2A
102
}
102
{ACAD_XDICTIONARY
360
4B7
102
}
330
2A
100
AcDbVisualStyle
  2
GouraudWithEdges
 70
     3
 71
     2
 72
     2
 73
     1
 90
        2
 40
-0.6
 41
30.0
 62
     5
 63
     7
 74
     1
 91
        4
 64
     7
 65
   257
 75
     1
175
     1
 42
1.0
 92
        0
 66
   257
 43
1.0
 76
     1
 77
     6
 78
     2
 67
     7
 79
     5
170
     0
171
     0
290
     0
174
     0
 93
       13
 44
0.0
173
     0
291
     1
 45
0.0
1001
ACAD
1000
AcDbSavedByObjectVersion
1070
     0
  0
VISUALSTYLE
  5
38
102
{ACAD_REACTORS
330
2A
102
}
102
{ACAD_XDICTIONARY
360
4CB
102
}
330
2A
100
AcDbVisualStyle
  2
Linepattern
 70
    14
 71
     2
 72
     2
 73
     0
 90
        0
 40
-0.6
 41
-30.0
 62
     5
 63
     7
 74
     1
 91
        4
 64
     7
 65
   257
 75
     7
175
     7
 42
1.0
 92
        8
 66
     7
 43
1.0
 76
     1
 77
     6
 78
     2
 67
     7
 79
     5
170
     0
171
     0
290
     0
174
     0
 93
        1
 44
0.0
173
     0
291
     1
 45
0.0
1001
ACAD
1000
AcDbSavedByObjectVersion
1070
     0
  0
VISUALSTYLE
  5
33
102
{ACAD_REACTORS
330
2A
102
}
102
{ACAD_XDICTIONARY
360
4C1
102
}
330
2A
100
AcDbVisualStyle
  2
Realistic
 70
     8
 71
     2
 72
     2
 73
     0
 90
        0
 40
-0.6
 41
-30.0
 62
     5
 63
     7
 74
     1
 91
        0
 64
     7
 65
   257
 75
     1
175
     1
 42
1.0
 92
        8
 66
     8
 43
1.0
 76
     1
 77
     6
 78
     2
 67
     7
 79
     5
170
     0
171
     0
290
     0
174
     0
 93
       13
 44
0.0
173
     0
291
     0
 45
0.0
1001
ACAD
1000
AcDbSavedByObjectVersion
1070
     0
  0
VISUALSTYLE
  5
37
102
{ACAD_REACTORS
330
2A
102
}
102
{ACAD_XDICTIONARY
360
4C9
102
}
330
2A
100
AcDbVisualStyle
  2
Thicken
 70
    13
 71
     2
 72
     2
 73
     0
 90
        0
 40
-0.6
 41
-30.0
 62
     5
 63
     7
 74
     1
 91
        4
 64
     7
 65
   257
 75
     1
175
     1
 42
1.0
 92
       12
 66
     7
 43
1.0
 76
     1
 77
     6
 78
     2
 67
     7
 79
     5
170
     0
171
     0
290
     0
174
     0
 93
        1
 44
0.0
173
     0
291
     1
 45
0.0
1001
ACAD
1000
AcDbSavedByObjectVersion
1070
     0
  0
DICTIONARYVAR
  5
4AF
102
{ACAD_REACTORS
330
4AC
102
}
330
4AC
100
DictionaryVariables
280
     0
  1
2
  0
DICTIONARYVAR
  5
4B0
102
{ACAD_REACTORS
330
4AC
102
}
330
4AC
100
DictionaryVariables
280
     0
  1
1
  0
DICTIONARY
  5
4D3
330
3D
100
AcDbDictionary
280
     1
281
     1
  3
ACAD_XREC_ROUNDTRIP
360
4D4
  0
DICTIONARY
  5
4D1
330
3C
100
AcDbDictionary
280
     1
281
     1
  3
ACAD_XREC_ROUNDTRIP
360
4D2
  0
DICTIONARY
  5
4D5
330
3E
100
AcDbDictionary
280
     1
281
     1
  3
ACAD_XREC_ROUNDTRIP
360
4D6
  0
DICTIONARY
  5
4B9
330
2F
100
AcDbDictionary
280
     1
281
     1
  3
ACAD_XREC_ROUNDTRIP
360
4BA
  0
DICTIONARY
  5
4BD
330
31
100
AcDbDictionary
280
     1
281
     1
  3
ACAD_XREC_ROUNDTRIP
360
4BE
  0
DICTIONARY
  5
4BB
330
30
100
AcDbDictionary
280
     1
281
     1
  3
ACAD_XREC_ROUNDTRIP
360
4BC
  0
DICTIONARY
  5
4BF
330
32
100
AcDbDictionary
280
     1
281
     1
  3
ACAD_XREC_ROUNDTRIP
360
4C0
  0
DICTIONARY
  5
4C7
330
36
100
AcDbDictionary
280
     1
281
     1
  3
ACAD_XREC_ROUNDTRIP
360
4C8
  0
DICTIONARY
  5
4CF
330
3A
100
AcDbDictionary
280
     1
281
     1
  3
ACAD_XREC_ROUNDTRIP
360
4D0
  0
DICTIONARY
  5
4C3
330
34
100
AcDbDictionary
280
     1
281
     1
  3
ACAD_XREC_ROUNDTRIP
360
4C4
  0
DICTIONARY
  5
4C5
330
35
100
AcDbDictionary
280
     1
281
     1
  3
ACAD_XREC_ROUNDTRIP
360
4C6
  0
DICTIONARY
  5
4CD
330
39
100
AcDbDictionary
280
     1
281
     1
  3
ACAD_XREC_ROUNDTRIP
360
4CE
  0
DICTIONARY
  5
4B1
330
2B
100
AcDbDictionary
280
     1
281
     1
  3
ACAD_XREC_ROUNDTRIP
360
4B2
  0
DICTIONARY
  5
4B3
330
2C
100
AcDbDictionary
280
     1
281
     1
  3
ACAD_XREC_ROUNDTRIP
360
4B4
  0
DICTIONARY
  5
4B5
330
2D
100
AcDbDictionary
280
     1
281
     1
  3
ACAD_XREC_ROUNDTRIP
360
4B6
  0
DICTIONARY
  5
4B7
330
2E
100
AcDbDictionary
280
     1
281
     1
  3
ACAD_XREC_ROUNDTRIP
360
4B8
  0
DICTIONARY
  5
4CB
330
38
100
AcDbDictionary
280
     1
281
     1
  3
ACAD_XREC_ROUNDTRIP
360
4CC
  0
DICTIONARY
  5
4C1
330
33
100
AcDbDictionary
280
     1
281
     1
  3
ACAD_XREC_ROUNDTRIP
360
4C2
  0
DICTIONARY
  5
4C9
330
37
100
AcDbDictionary
280
     1
281
     1
  3
ACAD_XREC_ROUNDTRIP
360
4CA
  0
XRECORD
  5
4D4
102
{ACAD_REACTORS
330
4D3
102
}
330
4D3
100
AcDbXrecord
280
     1
102
MATERIAL
148
0.0
149
0.0
149
0.0
 93
        0
 94
      127
282
     0
 72
     1
 77
     1
171
     1
175
     1
179
     1
273
     0
  0
XRECORD
  5
4D2
102
{ACAD_REACTORS
330
4D1
102
}
330
4D1
100
AcDbXrecord
280
     1
102
MATERIAL
148
0.0
149
0.0
149
0.0
 93
        0
 94
      127
282
     0
 72
     1
 77
     1
171
     1
175
     1
179
     1
273
     0
  0
XRECORD
  5
4D6
102
{ACAD_REACTORS
330
4D5
102
}
330
4D5
100
AcDbXrecord
280
     1
102
MATERIAL
148
0.0
149
0.0
149
0.0
 93
        0
 94
      127
282
     0
 72
     1
 77
     1
171
     1
175
     1
179
     1
273
     0
  0
XRECORD
  5
4BA
102
{ACAD_REACTORS
330
4B9
102
}
330
4B9
100
AcDbXrecord
280
     1
102
RTVSPropertyOp0
 70
     1
102
RTVSPropertyOp1
 70
     1
102
RTVSPropertyOp2
 70
     1
102
RTVSPropertyOp3
 70
     1
102
RTVSPropertyOp4
 70
     1
102
RTVSPropertyOp5
 70
     1
102
RTVSPropertyOp6
 70
     1
102
RTVSPropertyOp7
 70
     1
102
RTVSPropertyOp8
 70
     1
102
RTVSPropertyOp9
 70
     1
102
RTVSPropertyOp10
 70
     1
102
RTVSPropertyOp11
 70
     1
102
RTVSPropertyOp12
 70
     1
102
RTVSPropertyOp13
 70
     1
102
RTVSPropertyOp14
 70
     1
102
RTVSPropertyOp15
 70
     1
102
RTVSPropertyOp16
 70
     1
102
RTVSPropertyOp17
 70
     1
102
RTVSPropertyOp18
 70
     1
102
RTVSPropertyOp19
 70
     1
102
RTVSPropertyOp20
 70
     1
102
RTVSPropertyOp21
 70
     1
102
RTVSPropertyOp22
 70
     1
102
RTVSPropertyOp23
 70
     1
102
RTVSPropertyOp24
 70
     1
102
RTVSPropertyOp25
 70
     1
102
RTVSPropertyOp26
 70
     1
102
RTVSPropertyOp27
 70
     1
102
RTVSPropertyOp28
 70
     1
102
RTVSPropertyOp29
 70
     1
102
RTVSPropertyOp30
 70
     1
102
RTVSPropertyOp31
 70
     1
102
RTVSPropertyOp32
 70
     1
  0
XRECORD
  5
4BE
102
{ACAD_REACTORS
330
4BD
102
}
330
4BD
100
AcDbXrecord
280
     1
102
RTVSPropertyOp0
 70
     1
102
RTVSPropertyOp1
 70
     1
102
RTVSPropertyOp2
 70
     1
102
RTVSPropertyOp3
 70
     1
102
RTVSPropertyOp4
 70
     1
102
RTVSPropertyOp5
 70
     1
102
RTVSPropertyOp6
 70
     1
102
RTVSPropertyOp7
 70
     1
102
RTVSPropertyOp8
 70
     1
102
RTVSPropertyOp9
 70
     1
102
RTVSPropertyOp10
 70
     1
102
RTVSPropertyOp11
 70
     1
102
RTVSPropertyOp12
 70
     1
102
RTVSPropertyOp13
 70
     1
102
RTVSPropertyOp14
 70
     1
102
RTVSPropertyOp15
 70
     1
102
RTVSPropertyOp16
 70
     1
102
RTVSPropertyOp17
 70
     1
102
RTVSPropertyOp18
 70
     1
102
RTVSPropertyOp19
 70
     1
102
RTVSPropertyOp20
 70
     1
102
RTVSPropertyOp21
 70
     1
102
RTVSPropertyOp22
 70
     1
102
RTVSPropertyOp23
 70
     1
102
RTVSPropertyOp24
 70
     1
102
RTVSPropertyOp25
 70
     1
102
RTVSPropertyOp26
 70
     1
102
RTVSPropertyOp27
 70
     1
102
RTVSPropertyOp28
 70
     1
102
RTVSPropertyOp29
 70
     1
102
RTVSPropertyOp30
 70
     1
102
RTVSPropertyOp31
 70
     1
102
RTVSPropertyOp32
 70
     1
  0
XRECORD
  5
4BC
102
{ACAD_REACTORS
330
4BB
102
}
330
4BB
100
AcDbXrecord
280
     1
102
RTVSPropertyOp0
 70
     1
102
RTVSPropertyOp1
 70
     1
102
RTVSPropertyOp2
 70
     1
102
RTVSPropertyOp3
 70
     1
102
RTVSPropertyOp4
 70
     1
102
RTVSPropertyOp5
 70
     1
102
RTVSPropertyOp6
 70
     1
102
RTVSPropertyOp7
 70
     1
102
RTVSPropertyOp8
 70
     1
102
RTVSPropertyOp9
 70
     1
102
RTVSPropertyOp10
 70
     1
102
RTVSPropertyOp11
 70
     1
102
RTVSPropertyOp12
 70
     1
102
RTVSPropertyOp13
 70
     1
102
RTVSPropertyOp14
 70
     1
102
RTVSPropertyOp15
 70
     1
102
RTVSPropertyOp16
 70
     1
102
RTVSPropertyOp17
 70
     1
102
RTVSPropertyOp18
 70
     1
102
RTVSPropertyOp19
 70
     1
102
RTVSPropertyOp20
 70
     1
102
RTVSPropertyOp21
 70
     1
102
RTVSPropertyOp22
 70
     1
102
RTVSPropertyOp23
 70
     1
102
RTVSPropertyOp24
 70
     1
102
RTVSPropertyOp25
 70
     1
102
RTVSPropertyOp26
 70
     1
102
RTVSPropertyOp27
 70
     1
102
RTVSPropertyOp28
 70
     1
102
RTVSPropertyOp29
 70
     1
102
RTVSPropertyOp30
 70
     1
102
RTVSPropertyOp31
 70
     1
102
RTVSPropertyOp32
 70
     1
  0
XRECORD
  5
4C0
102
{ACAD_REACTORS
330
4BF
102
}
330
4BF
100
AcDbXrecord
280
     1
102
RTVSPropertyOp0
 70
     1
102
RTVSPropertyOp1
 70
     1
102
RTVSPropertyOp2
 70
     1
102
RTVSPropertyOp3
 70
     1
102
RTVSPropertyOp4
 70
     1
102
RTVSPropertyOp5
 70
     1
102
RTVSPropertyOp6
 70
     1
102
RTVSPropertyOp7
 70
     1
102
RTVSPropertyOp8
 70
     1
102
RTVSPropertyOp9
 70
     1
102
RTVSPropertyOp10
 70
     1
102
RTVSPropertyOp11
 70
     1
102
RTVSPropertyOp12
 70
     1
102
RTVSPropertyOp13
 70
     1
102
RTVSPropertyOp14
 70
     1
102
RTVSPropertyOp15
 70
     1
102
RTVSPropertyOp16
 70
     1
102
RTVSPropertyOp17
 70
     1
102
RTVSPropertyOp18
 70
     1
102
RTVSPropertyOp19
 70
     1
102
RTVSPropertyOp20
 70
     1
102
RTVSPropertyOp21
 70
     1
102
RTVSPropertyOp22
 70
     1
102
RTVSPropertyOp23
 70
     1
102
RTVSPropertyOp24
 70
     1
102
RTVSPropertyOp25
 70
     1
102
RTVSPropertyOp26
 70
     1
102
RTVSPropertyOp27
 70
     1
102
RTVSPropertyOp28
 70
     1
102
RTVSPropertyOp29
 70
     1
102
RTVSPropertyOp30
 70
     1
102
RTVSPropertyOp31
 70
     1
102
RTVSPropertyOp32
 70
     1
  0
XRECORD
  5
4C8
102
{ACAD_REACTORS
330
4C7
102
}
330
4C7
100
AcDbXrecord
280
     1
102
RTVSPropertyOp0
 70
     1
102
RTVSPropertyOp1
 70
     1
102
RTVSPropertyOp2
 70
     1
102
RTVSPropertyOp3
 70
     1
102
RTVSPropertyOp4
 70
     1
102
RTVSPropertyOp5
 70
     1
102
RTVSPropertyOp6
 70
     1
102
RTVSPropertyOp7
 70
     1
102
RTVSPropertyOp8
 70
     1
102
RTVSPropertyOp9
 70
     1
102
RTVSPropertyOp10
 70
     1
102
RTVSPropertyOp11
 70
     1
102
RTVSPropertyOp12
 70
     1
102
RTVSPropertyOp13
 70
     1
102
RTVSPropertyOp14
 70
     1
102
RTVSPropertyOp15
 70
     1
102
RTVSPropertyOp16
 70
     1
102
RTVSPropertyOp17
 70
     1
102
RTVSPropertyOp18
 70
     1
102
RTVSPropertyOp19
 70
     1
102
RTVSPropertyOp20
 70
     1
102
RTVSPropertyOp21
 70
     1
102
RTVSPropertyOp22
 70
     1
102
RTVSPropertyOp23
 70
     1
102
RTVSPropertyOp24
 70
     1
102
RTVSPropertyOp25
 70
     1
102
RTVSPropertyOp26
 70
     1
102
RTVSPropertyOp27
 70
     1
102
RTVSPropertyOp28
 70
     1
102
RTVSPropertyOp29
 70
     1
102
RTVSPropertyOp30
 70
     1
102
RTVSPropertyOp31
 70
     1
102
RTVSPropertyOp32
 70
     1
  0
XRECORD
  5
4D0
102
{ACAD_REACTORS
330
4CF
102
}
330
4CF
100
AcDbXrecord
280
     1
102
RTVSPropertyOp0
 70
     1
102
RTVSPropertyOp1
 70
     1
102
RTVSPropertyOp2
 70
     1
102
RTVSPropertyOp3
 70
     1
102
RTVSPropertyOp4
 70
     1
102
RTVSPropertyOp5
 70
     1
102
RTVSPropertyOp6
 70
     1
102
RTVSPropertyOp7
 70
     1
102
RTVSPropertyOp8
 70
     1
102
RTVSPropertyOp9
 70
     1
102
RTVSPropertyOp10
 70
     1
102
RTVSPropertyOp11
 70
     1
102
RTVSPropertyOp12
 70
     1
102
RTVSPropertyOp13
 70
     1
102
RTVSPropertyOp14
 70
     1
102
RTVSPropertyOp15
 70
     1
102
RTVSPropertyOp16
 70
     1
102
RTVSPropertyOp17
 70
     1
102
RTVSPropertyOp18
 70
     1
102
RTVSPropertyOp19
 70
     1
102
RTVSPropertyOp20
 70
     1
102
RTVSPropertyOp21
 70
     1
102
RTVSPropertyOp22
 70
     1
102
RTVSPropertyOp23
 70
     1
102
RTVSPropertyOp24
 70
     1
102
RTVSPropertyOp25
 70
     1
102
RTVSPropertyOp26
 70
     1
102
RTVSPropertyOp27
 70
     1
102
RTVSPropertyOp28
 70
     1
102
RTVSPropertyOp29
 70
     1
102
RTVSPropertyOp30
 70
     1
102
RTVSPropertyOp31
 70
     1
102
RTVSPropertyOp32
 70
     1
  0
XRECORD
  5
4C4
102
{ACAD_REACTORS
330
4C3
102
}
330
4C3
100
AcDbXrecord
280
     1
102
RTVSPropertyOp0
 70
     1
102
RTVSPropertyOp1
 70
     1
102
RTVSPropertyOp2
 70
     1
102
RTVSPropertyOp3
 70
     1
102
RTVSPropertyOp4
 70
     1
102
RTVSPropertyOp5
 70
     1
102
RTVSPropertyOp6
 70
     1
102
RTVSPropertyOp7
 70
     1
102
RTVSPropertyOp8
 70
     1
102
RTVSPropertyOp9
 70
     1
102
RTVSPropertyOp10
 70
     1
102
RTVSPropertyOp11
 70
     1
102
RTVSPropertyOp12
 70
     1
102
RTVSPropertyOp13
 70
     1
102
RTVSPropertyOp14
 70
     1
102
RTVSPropertyOp15
 70
     1
102
RTVSPropertyOp16
 70
     1
102
RTVSPropertyOp17
 70
     1
102
RTVSPropertyOp18
 70
     1
102
RTVSPropertyOp19
 70
     1
102
RTVSPropertyOp20
 70
     1
102
RTVSPropertyOp21
 70
     1
102
RTVSPropertyOp22
 70
     1
102
RTVSPropertyOp23
 70
     1
102
RTVSPropertyOp24
 70
     1
102
RTVSPropertyOp25
 70
     1
102
RTVSPropertyOp26
 70
     1
102
RTVSPropertyOp27
 70
     1
102
RTVSPropertyOp28
 70
     1
102
RTVSPropertyOp29
 70
     1
102
RTVSPropertyOp30
 70
     1
102
RTVSPropertyOp31
 70
     1
102
RTVSPropertyOp32
 70
     1
  0
XRECORD
  5
4C6
102
{ACAD_REACTORS
330
4C5
102
}
330
4C5
100
AcDbXrecord
280
     1
102
RTVSPropertyOp0
 70
     1
102
RTVSPropertyOp1
 70
     1
102
RTVSPropertyOp2
 70
     1
102
RTVSPropertyOp3
 70
     1
102
RTVSPropertyOp4
 70
     1
102
RTVSPropertyOp5
 70
     1
102
RTVSPropertyOp6
 70
     1
102
RTVSPropertyOp7
 70
     1
102
RTVSPropertyOp8
 70
     1
102
RTVSPropertyOp9
 70
     1
102
RTVSPropertyOp10
 70
     1
102
RTVSPropertyOp11
 70
     1
102
RTVSPropertyOp12
 70
     1
102
RTVSPropertyOp13
 70
     1
102
RTVSPropertyOp14
 70
     1
102
RTVSPropertyOp15
 70
     1
102
RTVSPropertyOp16
 70
     1
102
RTVSPropertyOp17
 70
     1
102
RTVSPropertyOp18
 70
     1
102
RTVSPropertyOp19
 70
     1
102
RTVSPropertyOp20
 70
     1
102
RTVSPropertyOp21
 70
     1
102
RTVSPropertyOp22
 70
     1
102
RTVSPropertyOp23
 70
     1
102
RTVSPropertyOp24
 70
     1
102
RTVSPropertyOp25
 70
     1
102
RTVSPropertyOp26
 70
     1
102
RTVSPropertyOp27
 70
     1
102
RTVSPropertyOp28
 70
     1
102
RTVSPropertyOp29
 70
     1
102
RTVSPropertyOp30
 70
     1
102
RTVSPropertyOp31
 70
     1
102
RTVSPropertyOp32
 70
     1
  0
XRECORD
  5
4CE
102
{ACAD_REACTORS
330
4CD
102
}
330
4CD
100
AcDbXrecord
280
     1
102
RTVSPropertyOp0
 70
     1
102
RTVSPropertyOp1
 70
     1
102
RTVSPropertyOp2
 70
     1
102
RTVSPropertyOp3
 70
     1
102
RTVSPropertyOp4
 70
     1
102
RTVSPropertyOp5
 70
     1
102
RTVSPropertyOp6
 70
     1
102
RTVSPropertyOp7
 70
     1
102
RTVSPropertyOp8
 70
     1
102
RTVSPropertyOp9
 70
     1
102
RTVSPropertyOp10
 70
     1
102
RTVSPropertyOp11
 70
     1
102
RTVSPropertyOp12
 70
     1
102
RTVSPropertyOp13
 70
     1
102
RTVSPropertyOp14
 70
     1
102
RTVSPropertyOp15
 70
     1
102
RTVSPropertyOp16
 70
     1
102
RTVSPropertyOp17
 70
     1
102
RTVSPropertyOp18
 70
     1
102
RTVSPropertyOp19
 70
     1
102
RTVSPropertyOp20
 70
     1
102
RTVSPropertyOp21
 70
     1
102
RTVSPropertyOp22
 70
     1
102
RTVSPropertyOp23
 70
     1
102
RTVSPropertyOp24
 70
     1
102
RTVSPropertyOp25
 70
     1
102
RTVSPropertyOp26
 70
     1
102
RTVSPropertyOp27
 70
     1
102
RTVSPropertyOp28
 70
     1
102
RTVSPropertyOp29
 70
     1
102
RTVSPropertyOp30
 70
     1
102
RTVSPropertyOp31
 70
     1
102
RTVSPropertyOp32
 70
     1
  0
XRECORD
  5
4B2
102
{ACAD_REACTORS
330
4B1
102
}
330
4B1
100
AcDbXrecord
280
     1
102
RTVSPropertyOp0
 70
     1
102
RTVSPropertyOp1
 70
     1
102
RTVSPropertyOp2
 70
     1
102
RTVSPropertyOp3
 70
     1
102
RTVSPropertyOp4
 70
     1
102
RTVSPropertyOp5
 70
     1
102
RTVSPropertyOp6
 70
     1
102
RTVSPropertyOp7
 70
     1
102
RTVSPropertyOp8
 70
     1
102
RTVSPropertyOp9
 70
     1
102
RTVSPropertyOp10
 70
     1
102
RTVSPropertyOp11
 70
     1
102
RTVSPropertyOp12
 70
     1
102
RTVSPropertyOp13
 70
     1
102
RTVSPropertyOp14
 70
     1
102
RTVSPropertyOp15
 70
     1
102
RTVSPropertyOp16
 70
     1
102
RTVSPropertyOp17
 70
     1
102
RTVSPropertyOp18
 70
     1
102
RTVSPropertyOp19
 70
     1
102
RTVSPropertyOp20
 70
     1
102
RTVSPropertyOp21
 70
     1
102
RTVSPropertyOp22
 70
     1
102
RTVSPropertyOp23
 70
     1
102
RTVSPropertyOp24
 70
     1
102
RTVSPropertyOp25
 70
     1
102
RTVSPropertyOp26
 70
     1
102
RTVSPropertyOp27
 70
     1
102
RTVSPropertyOp28
 70
     1
102
RTVSPropertyOp29
 70
     1
102
RTVSPropertyOp30
 70
     1
102
RTVSPropertyOp31
 70
     1
102
RTVSPropertyOp32
 70
     1
  0
XRECORD
  5
4B4
102
{ACAD_REACTORS
330
4B3
102
}
330
4B3
100
AcDbXrecord
280
     1
102
RTVSPropertyOp0
 70
     1
102
RTVSPropertyOp1
 70
     1
102
RTVSPropertyOp2
 70
     1
102
RTVSPropertyOp3
 70
     1
102
RTVSPropertyOp4
 70
     1
102
RTVSPropertyOp5
 70
     1
102
RTVSPropertyOp6
 70
     1
102
RTVSPropertyOp7
 70
     1
102
RTVSPropertyOp8
 70
     1
102
RTVSPropertyOp9
 70
     1
102
RTVSPropertyOp10
 70
     1
102
RTVSPropertyOp11
 70
     1
102
RTVSPropertyOp12
 70
     1
102
RTVSPropertyOp13
 70
     1
102
RTVSPropertyOp14
 70
     1
102
RTVSPropertyOp15
 70
     1
102
RTVSPropertyOp16
 70
     1
102
RTVSPropertyOp17
 70
     1
102
RTVSPropertyOp18
 70
     1
102
RTVSPropertyOp19
 70
     1
102
RTVSPropertyOp20
 70
     1
102
RTVSPropertyOp21
 70
     1
102
RTVSPropertyOp22
 70
     1
102
RTVSPropertyOp23
 70
     1
102
RTVSPropertyOp24
 70
     1
102
RTVSPropertyOp25
 70
     1
102
RTVSPropertyOp26
 70
     1
102
RTVSPropertyOp27
 70
     1
102
RTVSPropertyOp28
 70
     1
102
RTVSPropertyOp29
 70
     1
102
RTVSPropertyOp30
 70
     1
102
RTVSPropertyOp31
 70
     1
102
RTVSPropertyOp32
 70
     1
  0
XRECORD
  5
4B6
102
{ACAD_REACTORS
330
4B5
102
}
330
4B5
100
AcDbXrecord
280
     1
102
RTVSPropertyOp0
 70
     1
102
RTVSPropertyOp1
 70
     1
102
RTVSPropertyOp2
 70
     1
102
RTVSPropertyOp3
 70
     1
102
RTVSPropertyOp4
 70
     1
102
RTVSPropertyOp5
 70
     1
102
RTVSPropertyOp6
 70
     1
102
RTVSPropertyOp7
 70
     1
102
RTVSPropertyOp8
 70
     1
102
RTVSPropertyOp9
 70
     1
102
RTVSPropertyOp10
 70
     1
102
RTVSPropertyOp11
 70
     1
102
RTVSPropertyOp12
 70
     1
102
RTVSPropertyOp13
 70
     1
102
RTVSPropertyOp14
 70
     1
102
RTVSPropertyOp15
 70
     1
102
RTVSPropertyOp16
 70
     1
102
RTVSPropertyOp17
 70
     1
102
RTVSPropertyOp18
 70
     1
102
RTVSPropertyOp19
 70
     1
102
RTVSPropertyOp20
 70
     1
102
RTVSPropertyOp21
 70
     1
102
RTVSPropertyOp22
 70
     1
102
RTVSPropertyOp23
 70
     1
102
RTVSPropertyOp24
 70
     1
102
RTVSPropertyOp25
 70
     1
102
RTVSPropertyOp26
 70
     1
102
RTVSPropertyOp27
 70
     1
102
RTVSPropertyOp28
 70
     1
102
RTVSPropertyOp29
 70
     1
102
RTVSPropertyOp30
 70
     1
102
RTVSPropertyOp31
 70
     1
102
RTVSPropertyOp32
 70
     1
  0
XRECORD
  5
4B8
102
{ACAD_REACTORS
330
4B7
102
}
330
4B7
100
AcDbXrecord
280
     1
102
RTVSPropertyOp0
 70
     1
102
RTVSPropertyOp1
 70
     1
102
RTVSPropertyOp2
 70
     1
102
RTVSPropertyOp3
 70
     1
102
RTVSPropertyOp4
 70
     1
102
RTVSPropertyOp5
 70
     1
102
RTVSPropertyOp6
 70
     1
102
RTVSPropertyOp7
 70
     1
102
RTVSPropertyOp8
 70
     1
102
RTVSPropertyOp9
 70
     1
102
RTVSPropertyOp10
 70
     1
102
RTVSPropertyOp11
 70
     1
102
RTVSPropertyOp12
 70
     1
102
RTVSPropertyOp13
 70
     1
102
RTVSPropertyOp14
 70
     1
102
RTVSPropertyOp15
 70
     1
102
RTVSPropertyOp16
 70
     1
102
RTVSPropertyOp17
 70
     1
102
RTVSPropertyOp18
 70
     1
102
RTVSPropertyOp19
 70
     1
102
RTVSPropertyOp20
 70
     1
102
RTVSPropertyOp21
 70
     1
102
RTVSPropertyOp22
 70
     1
102
RTVSPropertyOp23
 70
     1
102
RTVSPropertyOp24
 70
     1
102
RTVSPropertyOp25
 70
     1
102
RTVSPropertyOp26
 70
     1
102
RTVSPropertyOp27
 70
     1
102
RTVSPropertyOp28
 70
     1
102
RTVSPropertyOp29
 70
     1
102
RTVSPropertyOp30
 70
     1
102
RTVSPropertyOp31
 70
     1
102
RTVSPropertyOp32
 70
     1
  0
XRECORD
  5
4CC
102
{ACAD_REACTORS
330
4CB
102
}
330
4CB
100
AcDbXrecord
280
     1
102
RTVSPropertyOp0
 70
     1
102
RTVSPropertyOp1
 70
     1
102
RTVSPropertyOp2
 70
     1
102
RTVSPropertyOp3
 70
     1
102
RTVSPropertyOp4
 70
     1
102
RTVSPropertyOp5
 70
     1
102
RTVSPropertyOp6
 70
     1
102
RTVSPropertyOp7
 70
     1
102
RTVSPropertyOp8
 70
     1
102
RTVSPropertyOp9
 70
     1
102
RTVSPropertyOp10
 70
     1
102
RTVSPropertyOp11
 70
     1
102
RTVSPropertyOp12
 70
     1
102
RTVSPropertyOp13
 70
     1
102
RTVSPropertyOp14
 70
     1
102
RTVSPropertyOp15
 70
     1
102
RTVSPropertyOp16
 70
     1
102
RTVSPropertyOp17
 70
     1
102
RTVSPropertyOp18
 70
     1
102
RTVSPropertyOp19
 70
     1
102
RTVSPropertyOp20
 70
     1
102
RTVSPropertyOp21
 70
     1
102
RTVSPropertyOp22
 70
     1
102
RTVSPropertyOp23
 70
     1
102
RTVSPropertyOp24
 70
     1
102
RTVSPropertyOp25
 70
     1
102
RTVSPropertyOp26
 70
     1
102
RTVSPropertyOp27
 70
     1
102
RTVSPropertyOp28
 70
     1
102
RTVSPropertyOp29
 70
     1
102
RTVSPropertyOp30
 70
     1
102
RTVSPropertyOp31
 70
     1
102
RTVSPropertyOp32
 70
     1
  0
XRECORD
  5
4C2
102
{ACAD_REACTORS
330
4C1
102
}
330
4C1
100
AcDbXrecord
280
     1
102
RTVSPropertyOp0
 70
     1
102
RTVSPropertyOp1
 70
     1
102
RTVSPropertyOp2
 70
     1
102
RTVSPropertyOp3
 70
     1
102
RTVSPropertyOp4
 70
     1
102
RTVSPropertyOp5
 70
     1
102
RTVSPropertyOp6
 70
     1
102
RTVSPropertyOp7
 70
     1
102
RTVSPropertyOp8
 70
     1
102
RTVSPropertyOp9
 70
     1
102
RTVSPropertyOp10
 70
     1
102
RTVSPropertyOp11
 70
     1
102
RTVSPropertyOp12
 70
     1
102
RTVSPropertyOp13
 70
     1
102
RTVSPropertyOp14
 70
     1
102
RTVSPropertyOp15
 70
     1
102
RTVSPropertyOp16
 70
     1
102
RTVSPropertyOp17
 70
     1
102
RTVSPropertyOp18
 70
     1
102
RTVSPropertyOp19
 70
     1
102
RTVSPropertyOp20
 70
     1
102
RTVSPropertyOp21
 70
     1
102
RTVSPropertyOp22
 70
     1
102
RTVSPropertyOp23
 70
     1
102
RTVSPropertyOp24
 70
     1
102
RTVSPropertyOp25
 70
     1
102
RTVSPropertyOp26
 70
     1
102
RTVSPropertyOp27
 70
     1
102
RTVSPropertyOp28
 70
     1
102
RTVSPropertyOp29
 70
     1
102
RTVSPropertyOp30
 70
     1
102
RTVSPropertyOp31
 70
     1
102
RTVSPropertyOp32
 70
     1
  0
XRECORD
  5
4CA
102
{ACAD_REACTORS
330
4C9
102
}
330
4C9
100
AcDbXrecord
280
     1
102
RTVSPropertyOp0
 70
     1
102
RTVSPropertyOp1
 70
     1
102
RTVSPropertyOp2
 70
     1
102
RTVSPropertyOp3
 70
     1
102
RTVSPropertyOp4
 70
     1
102
RTVSPropertyOp5
 70
     1
102
RTVSPropertyOp6
 70
     1
102
RTVSPropertyOp7
 70
     1
102
RTVSPropertyOp8
 70
     1
102
RTVSPropertyOp9
 70
     1
102
RTVSPropertyOp10
 70
     1
102
RTVSPropertyOp11
 70
     1
102
RTVSPropertyOp12
 70
     1
102
RTVSPropertyOp13
 70
     1
102
RTVSPropertyOp14
 70
     1
102
RTVSPropertyOp15
 70
     1
102
RTVSPropertyOp16
 70
     1
102
RTVSPropertyOp17
 70
     1
102
RTVSPropertyOp18
 70
     1
102
RTVSPropertyOp19
 70
     1
102
RTVSPropertyOp20
 70
     1
102
RTVSPropertyOp21
 70
     1
102
RTVSPropertyOp22
 70
     1
102
RTVSPropertyOp23
 70
     1
102
RTVSPropertyOp24
 70
     1
102
RTVSPropertyOp25
 70
     1
102
RTVSPropertyOp26
 70
     1
102
RTVSPropertyOp27
 70
     1
102
RTVSPropertyOp28
 70
     1
102
RTVSPropertyOp29
 70
     1
102
RTVSPropertyOp30
 70
     1
102
RTVSPropertyOp31
 70
     1
102
RTVSPropertyOp32
 70
     1
  0
ENDSEC
  0
EOF
